Yorknew City arc(39-58)/57-Initiative × And × Law.mp4


File Size36.66 MB (38,437,980 bytes)
DownloadAnonFiles | Go4Up | Jheberg | MultiUp | Sendspace | ShareBeast | SolidFiles | UsersFiles
HashesCRC32: E329E88C, MD5: 031B205050A81D8FB0EBF1194CA6E2BA, SHA1: EC034C362683E7EF74D66C4A85F0085B0288CD52, ED2K: A381904FCE009ED5ACD55C9828F0B6C3
Screenshots
screenshotscreenshotscreenshotscreenshotscreenshot
Additional Info
General
Complete name                            : 57-Initiative × And × Law.mp4
Format                                   : MPEG-4
Format profile                           : Base Media
Codec ID                                 : isom
File size                                : 36.7 MiB
Duration                                 : 23mn 37s
Overall bit rate mode                    : Variable
Overall bit rate                         : 217 Kbps
Encoded date                             : UTC 2012-12-02 04:50:07
Tagged date                              : UTC 2012-12-02 04:50:07

Video
ID                                       : 1
Format                                   : AVC
Format/Info                              : Advanced Video Codec
Format profile                           : High@L3.0
Format settings, CABAC                   : Yes
Format settings, ReFrames                : 8 frames
Codec ID                                 : avc1
Codec ID/Info                            : Advanced Video Coding
Duration                                 : 23mn 37s
Source duration                          : 2mn 8s
Bit rate                                 : 149 Kbps
Maximum bit rate                         : 1 217 Kbps
Width                                    : 640 pixels
Height                                   : 360 pixels
Display aspect ratio                     : 16:9
Frame rate mode                          : Constant
Frame rate                               : 23.810 fps
Color space                              : YUV
Chroma subsampling                       : 4:2:0
Bit depth                                : 8 bits
Scan type                                : Progressive
Bits/(Pixel*Frame)                       : 0.027
Stream size                              : 25.1 MiB (69%)
Source stream size                       : 25.1 MiB (69%)
Writing library                          : x264 core 120 r2164 da19765
Encoding settings                        : cabac=1 / ref=8 / deblock=1:1:1 / analyse=0x3:0x2 / me=umh / subme=10 / psy=1 / psy_rd=0.30:0.00 / mixed_ref=1 / me_range=32 / chroma_me=1 / trellis=2 / 8x8dct=1 / cqm=0 / deadzone=21,11 / fast_pskip=0 / chroma_qp_offset=-2 / threads=12 / sliced_threads=0 / nr=0 / decimate=1 / interlaced=0 / bluray_compat=0 / constrained_intra=0 / bframes=8 / b_pyramid=2 / b_adapt=2 / b_bias=0 / direct=1 / weightb=1 / open_gop=0 / weightp=2 / keyint=250 / keyint_min=23 / scenecut=40 / intra_refresh=0 / rc_lookahead=50 / rc=crf / mbtree=1 / crf=29.0 / qcomp=0.70 / qpmin=0 / qpmax=69 / qpstep=4 / ip_ratio=1.40 / aq=2:0.60
Encoded date                             : UTC 2012-12-02 04:42:14
Tagged date                              : UTC 2012-12-02 04:50:07
mdhd_Duration                            : 1417329

Audio
ID                                       : 2
Format                                   : AAC
Format/Info                              : Advanced Audio Codec
Format profile                           : LC
Codec ID                                 : 40
Duration                                 : 23mn 37s
Bit rate mode                            : Variable
Bit rate                                 : 64.6 Kbps
Maximum bit rate                         : 107 Kbps
Channel(s)                               : 2 channels
Channel positions                        : Front: L R
Sampling rate                            : 44.1 KHz
Compression mode                         : Lossy
Stream size                              : 10.9 MiB (30%)
Language                                 : English
Encoded date                             : UTC 2012-12-02 04:50:07
Tagged date                              : UTC 2012-12-02 04:50:07

Other Files in this Torrent
Yorknew City arc(39-58)/57-Initiative × And × Law.mp4
beta
Anime DDL+NZB mirror
Current Time: 27/09/2020 12:58



About/FAQs