Hunter Exam arc(1-21)/9-Beware × Of × Prisoners.mp4


File Size28.98 MB (30,391,566 bytes)
DownloadAnonFiles | Go4Up | Jheberg | MultiUp | Sendspace | ShareBeast | SolidFiles | UsersFiles
HashesCRC32: 00F24E35, MD5: 02F5D59B179663F0E083DCFC2AB81028, SHA1: 3D7E384F0D2ABB35D2B291D25ACDD2A261C80F51, ED2K: CDA9238CA418D4D1881C77CAA082D343
Screenshots
screenshotscreenshotscreenshotscreenshotscreenshot
Additional Info
General
Complete name                            : 9-Beware × Of × Prisoners.mp4
Format                                   : MPEG-4
Format profile                           : Base Media
Codec ID                                 : isom
File size                                : 29.0 MiB
Duration                                 : 23mn 37s
Overall bit rate mode                    : Variable
Overall bit rate                         : 172 Kbps
Encoded date                             : UTC 2012-12-12 19:51:31
Tagged date                              : UTC 2012-12-12 19:51:31

Video
ID                                       : 1
Format                                   : AVC
Format/Info                              : Advanced Video Codec
Format profile                           : High@L3.0
Format settings, CABAC                   : Yes
Format settings, ReFrames                : 6 frames
Codec ID                                 : avc1
Codec ID/Info                            : Advanced Video Coding
Duration                                 : 23mn 37s
Bit rate                                 : 128 Kbps
Maximum bit rate                         : 1 146 Kbps
Width                                    : 640 pixels
Height                                   : 360 pixels
Display aspect ratio                     : 16:9
Frame rate mode                          : Constant
Frame rate                               : 23.976 fps
Color space                              : YUV
Chroma subsampling                       : 4:2:0
Bit depth                                : 8 bits
Scan type                                : Progressive
Bits/(Pixel*Frame)                       : 0.023
Stream size                              : 21.7 MiB (75%)
Writing library                          : x264 core 119 r2106 07efeb4
Encoding settings                        : cabac=1 / ref=6 / deblock=1:1:1 / analyse=0x3:0x133 / me=umh / subme=10 / psy=1 / psy_rd=0.25:0.00 / mixed_ref=1 / me_range=48 / chroma_me=1 / trellis=2 / 8x8dct=1 / cqm=0 / deadzone=21,11 / fast_pskip=1 / chroma_qp_offset=-2 / threads=12 / sliced_threads=0 / nr=0 / decimate=1 / interlaced=0 / bluray_compat=0 / constrained_intra=0 / bframes=3 / b_pyramid=2 / b_adapt=2 / b_bias=0 / direct=3 / weightb=1 / open_gop=0 / weightp=2 / keyint=250 / keyint_min=23 / scenecut=40 / intra_refresh=0 / rc_lookahead=60 / rc=crf / mbtree=1 / crf=28.0 / qcomp=0.70 / qpmin=0 / qpmax=69 / qpstep=4 / ip_ratio=1.40 / aq=1:0.40
Encoded date                             : UTC 2012-12-12 19:51:31
Tagged date                              : UTC 2012-12-12 19:51:32

Audio
ID                                       : 2
Format                                   : AAC
Format/Info                              : Advanced Audio Codec
Format profile                           : HE-AACv2 / HE-AAC / LC
Codec ID                                 : 40
Duration                                 : 23mn 37s
Bit rate mode                            : Variable
Bit rate                                 : 40.0 Kbps
Maximum bit rate                         : 46.7 Kbps
Channel(s)                               : 2 channels / 1 channel / 1 channel
Channel positions                        : Front: L R / Front: C / Front: C
Sampling rate                            : 44.1 KHz / 44.1 KHz / 22.05 KHz
Compression mode                         : Lossy
Stream size                              : 6.75 MiB (23%)
Encoded date                             : UTC 2012-12-12 19:51:32
Tagged date                              : UTC 2012-12-12 19:51:32

Other Files in this Torrent
Hunter Exam arc(1-21)/9-Beware × Of × Prisoners.mp4
beta
Anime DDL+NZB mirror
Current Time: 18/02/2020 06:45



About/FAQs