Greed Island arc(59-75)/61-Invitation × And × Friend.mp4


File Size35.99 MB (37,733,785 bytes)
DownloadAnonFiles | Go4Up | Jheberg | MultiUp | Sendspace | ShareBeast | SolidFiles | UsersFiles
HashesCRC32: D7F8804A, MD5: B2F3BFC9007F5A82CBC512D9FB27F057, SHA1: C622F75126338C73858BE64EF32666EFE79FAF01, ED2K: C7E13EF1328CC1989D321A05385F90A2
Screenshots
screenshotscreenshotscreenshotscreenshotscreenshot
Additional Info
General
Complete name                            : 61-Invitation × And × Friend.mp4
Format                                   : MPEG-4
Format profile                           : Base Media
Codec ID                                 : isom
File size                                : 36.0 MiB
Duration                                 : 23mn 37s
Overall bit rate mode                    : Variable
Overall bit rate                         : 213 Kbps
Encoded date                             : UTC 2013-01-06 04:43:35
Tagged date                              : UTC 2013-01-06 04:43:35

Video
ID                                       : 1
Format                                   : AVC
Format/Info                              : Advanced Video Codec
Format profile                           : High@L3.0
Format settings, CABAC                   : Yes
Format settings, ReFrames                : 8 frames
Codec ID                                 : avc1
Codec ID/Info                            : Advanced Video Coding
Duration                                 : 23mn 37s
Source duration                          : 2mn 8s
Bit rate                                 : 145 Kbps
Maximum bit rate                         : 1 055 Kbps
Width                                    : 640 pixels
Height                                   : 360 pixels
Display aspect ratio                     : 16:9
Frame rate mode                          : Constant
Frame rate                               : 23.810 fps
Color space                              : YUV
Chroma subsampling                       : 4:2:0
Bit depth                                : 8 bits
Scan type                                : Progressive
Bits/(Pixel*Frame)                       : 0.026
Stream size                              : 24.5 MiB (68%)
Source stream size                       : 24.5 MiB (68%)
Writing library                          : x264 core 120 r2164 da19765
Encoding settings                        : cabac=1 / ref=8 / deblock=1:1:1 / analyse=0x3:0x2 / me=umh / subme=10 / psy=1 / psy_rd=0.30:0.00 / mixed_ref=1 / me_range=32 / chroma_me=1 / trellis=2 / 8x8dct=1 / cqm=0 / deadzone=21,11 / fast_pskip=0 / chroma_qp_offset=-2 / threads=12 / sliced_threads=0 / nr=0 / decimate=1 / interlaced=0 / bluray_compat=0 / constrained_intra=0 / bframes=8 / b_pyramid=2 / b_adapt=2 / b_bias=0 / direct=1 / weightb=1 / open_gop=0 / weightp=2 / keyint=250 / keyint_min=23 / scenecut=40 / intra_refresh=0 / rc_lookahead=50 / rc=crf / mbtree=1 / crf=29.0 / qcomp=0.70 / qpmin=0 / qpmax=69 / qpstep=4 / ip_ratio=1.40 / aq=2:0.60
Encoded date                             : UTC 2013-01-06 04:37:12
Tagged date                              : UTC 2013-01-06 04:43:35
mdhd_Duration                            : 1417329

Audio
ID                                       : 2
Format                                   : AAC
Format/Info                              : Advanced Audio Codec
Format profile                           : LC
Codec ID                                 : 40
Duration                                 : 23mn 37s
Bit rate mode                            : Variable
Bit rate                                 : 64.6 Kbps
Maximum bit rate                         : 113 Kbps
Channel(s)                               : 2 channels
Channel positions                        : Front: L R
Sampling rate                            : 44.1 KHz
Compression mode                         : Lossy
Stream size                              : 10.9 MiB (30%)
Language                                 : English
Encoded date                             : UTC 2013-01-06 04:43:35
Tagged date                              : UTC 2013-01-06 04:43:35

Other Files in this Torrent
Greed Island arc(59-75)/61-Invitation × And × Friend.mp4
beta
Anime DDL+NZB mirror
Current Time: 24/02/2020 21:07



About/FAQs