File Size39.02 MB (40,920,582 bytes)
DownloadAnonFiles | Go4Up | Jheberg | MultiUp | Sendspace | ShareBeast | SolidFiles | UsersFiles
HashesCRC32: 340AF763, MD5: 56629AE0AC4B7555B9707DD6BDE04B43, SHA1: 3F8C00FB617A0771519FC3B83B5F779A32B25A57, ED2K: 1723766169F16CE9DC62D084BFC2CE69
Screenshots
screenshotscreenshotscreenshotscreenshotscreenshot
Additional Info
General
Complete name                            : 50-Ally × And × Sword.mp4
Format                                   : MPEG-4
Format profile                           : Base Media
Codec ID                                 : isom
File size                                : 39.0 MiB
Duration                                 : 23mn 37s
Overall bit rate mode                    : Variable
Overall bit rate                         : 231 Kbps
Encoded date                             : UTC 2012-10-06 03:35:20
Tagged date                              : UTC 2012-10-06 03:35:20

Video
ID                                       : 1
Format                                   : AVC
Format/Info                              : Advanced Video Codec
Format profile                           : High@L3.0
Format settings, CABAC                   : Yes
Format settings, ReFrames                : 6 frames
Codec ID                                 : avc1
Codec ID/Info                            : Advanced Video Coding
Duration                                 : 23mn 37s
Bit rate                                 : 134 Kbps
Maximum bit rate                         : 1 063 Kbps
Width                                    : 640 pixels
Height                                   : 360 pixels
Display aspect ratio                     : 16:9
Original display aspect ratio            : 16:9
Frame rate mode                          : Constant
Frame rate                               : 23.976 fps
Color space                              : YUV
Chroma subsampling                       : 4:2:0
Bit depth                                : 8 bits
Scan type                                : Progressive
Bits/(Pixel*Frame)                       : 0.024
Stream size                              : 22.6 MiB (58%)
Writing library                          : x264 core 125 r2208 d9d2288
Encoding settings                        : cabac=1 / ref=6 / deblock=1:1:1 / analyse=0x3:0x113 / me=hex / subme=2 / psy=1 / psy_rd=0.30:0.00 / mixed_ref=0 / me_range=16 / chroma_me=1 / trellis=0 / 8x8dct=1 / cqm=0 / deadzone=21,11 / fast_pskip=1 / chroma_qp_offset=0 / threads=24 / lookahead_threads=4 / sliced_threads=0 / nr=0 / decimate=1 / interlaced=0 / bluray_compat=0 / constrained_intra=0 / bframes=3 / b_pyramid=2 / b_adapt=1 / b_bias=0 / direct=1 / weightb=1 / open_gop=0 / weightp=1 / keyint=250 / keyint_min=23 / scenecut=40 / intra_refresh=0 / rc_lookahead=10 / rc=crf / mbtree=1 / crf=29.0 / qcomp=0.60 / qpmin=0 / qpmax=69 / qpstep=4 / ip_ratio=1.40 / aq=2:0.60
Encoded date                             : UTC 2012-10-06 03:35:20
Tagged date                              : UTC 2012-10-06 03:35:21

Audio
ID                                       : 2
Format                                   : AAC
Format/Info                              : Advanced Audio Codec
Format profile                           : LC
Codec ID                                 : 40
Duration                                 : 23mn 37s
Bit rate mode                            : Variable
Bit rate                                 : 93.5 Kbps
Maximum bit rate                         : 135 Kbps
Channel(s)                               : 2 channels
Channel positions                        : Front: L R
Sampling rate                            : 44.1 KHz
Compression mode                         : Lossy
Stream size                              : 15.8 MiB (40%)
Encoded date                             : UTC 2012-10-06 03:35:20
Tagged date                              : UTC 2012-10-06 03:35:21

Other Files in this Torrent
Yorknew City arc(39-58)/50-Ally × And × Sword.mp4
beta
Anime DDL+NZB mirror
Current Time: 28/05/2020 03:46



About/FAQs