Yorknew City arc(39-58)/55-Allies × And × Lies.mp4


File Size37.70 MB (39,530,320 bytes)
DownloadAnonFiles | Go4Up | Jheberg | MultiUp | Sendspace | ShareBeast | SolidFiles | UsersFiles
HashesCRC32: 1CEDE2A7, MD5: C4C82BE6E8C5D555BEA62711A27DA82E, SHA1: D67847F01D9B18153AF6AB81A69EC48B26EC7A7A, ED2K: 255D46808F3AAD16433BC3CC197A7EF0
Screenshots
screenshotscreenshotscreenshotscreenshotscreenshot
Additional Info
General
Complete name                            : 55-Allies × And × Lies.mp4
Format                                   : MPEG-4
Format profile                           : Base Media
Codec ID                                 : isom
File size                                : 37.7 MiB
Duration                                 : 23mn 37s
Overall bit rate mode                    : Variable
Overall bit rate                         : 223 Kbps
Encoded date                             : UTC 2012-11-11 04:37:02
Tagged date                              : UTC 2012-11-11 04:37:02

Video
ID                                       : 1
Format                                   : AVC
Format/Info                              : Advanced Video Codec
Format profile                           : High@L3.0
Format settings, CABAC                   : Yes
Format settings, ReFrames                : 6 frames
Codec ID                                 : avc1
Codec ID/Info                            : Advanced Video Coding
Duration                                 : 23mn 37s
Bit rate                                 : 123 Kbps
Maximum bit rate                         : 1 304 Kbps
Width                                    : 656 pixels
Height                                   : 368 pixels
Display aspect ratio                     : 16:9
Original display aspect ratio            : 16:9
Frame rate mode                          : Constant
Frame rate                               : 23.976 fps
Color space                              : YUV
Chroma subsampling                       : 4:2:0
Bit depth                                : 8 bits
Scan type                                : Progressive
Bits/(Pixel*Frame)                       : 0.021
Stream size                              : 20.8 MiB (55%)
Title                                    : _hunter_x_hunter_episode_55_allies_x_and_x_lies.h264:fps=23.976 - Imported with GPAC 0.4.6-DEV-rev
Writing library                          : x264 core 128 r2216 198a7ea
Encoding settings                        : cabac=1 / ref=6 / deblock=1:1:1 / analyse=0x3:0x113 / me=hex / subme=2 / psy=1 / psy_rd=0.30:0.00 / mixed_ref=0 / me_range=16 / chroma_me=1 / trellis=0 / 8x8dct=1 / cqm=0 / deadzone=21,11 / fast_pskip=1 / chroma_qp_offset=0 / threads=32 / lookahead_threads=5 / sliced_threads=0 / nr=0 / decimate=1 / interlaced=0 / bluray_compat=0 / constrained_intra=0 / bframes=3 / b_pyramid=2 / b_adapt=1 / b_bias=0 / direct=1 / weightb=1 / open_gop=0 / weightp=1 / keyint=250 / keyint_min=23 / scenecut=40 / intra_refresh=0 / rc_lookahead=10 / rc=crf / mbtree=1 / crf=29.0 / qcomp=0.60 / qpmin=0 / qpmax=69 / qpstep=4 / ip_ratio=1.40 / aq=1:0.60
Encoded date                             : UTC 2012-11-11 04:37:02
Tagged date                              : UTC 2012-11-11 04:37:02

Audio
ID                                       : 2
Format                                   : AAC
Format/Info                              : Advanced Audio Codec
Format profile                           : LC
Codec ID                                 : 40
Duration                                 : 23mn 37s
Bit rate mode                            : Variable
Bit rate                                 : 96.0 Kbps
Maximum bit rate                         : 105 Kbps
Channel(s)                               : 2 channels
Channel positions                        : Front: L R
Sampling rate                            : 44.1 KHz
Compression mode                         : Lossy
Stream size                              : 16.2 MiB (43%)
Title                                    : _hunter_x_hunter_episode_55_allies_x_and_x_lies.aac:fps=23.976 - Imported with GPAC 0.4.6-DEV-rev
Encoded date                             : UTC 2012-11-11 04:37:02
Tagged date                              : UTC 2012-11-11 04:37:02

Other Files in this Torrent
Yorknew City arc(39-58)/55-Allies × And × Lies.mp4
beta
Anime DDL+NZB mirror
Current Time: 15/07/2020 18:59



About/FAQs