Heavens Arena arc(27-38)/27-Arrival × At × The Arena.mp4


File Size36.36 MB (38,123,040 bytes)
DownloadAnonFiles | Go4Up | Jheberg | MultiUp | Sendspace | ShareBeast | SolidFiles | UsersFiles
HashesCRC32: 02800E7F, MD5: C5DDFD363AD50E85E6D608DA5D035942, SHA1: 20ED6E68675D7E0A488570BF9EE5FF9F1169F2FF, ED2K: 695E1A06A5C3B8FBF6CEC41A089D35FB
Screenshots
screenshotscreenshotscreenshotscreenshotscreenshot
Additional Info
General
Complete name                            : 27-Arrival × At × The Arena.mp4
Format                                   : MPEG-4
Format profile                           : Base Media
Codec ID                                 : isom
File size                                : 36.4 MiB
Duration                                 : 23mn 37s
Overall bit rate mode                    : Variable
Overall bit rate                         : 215 Kbps
Encoded date                             : UTC 2012-12-12 22:14:08
Tagged date                              : UTC 2012-12-12 22:14:08

Video
ID                                       : 1
Format                                   : AVC
Format/Info                              : Advanced Video Codec
Format profile                           : High@L3.0
Format settings, CABAC                   : Yes
Format settings, ReFrames                : 6 frames
Codec ID                                 : avc1
Codec ID/Info                            : Advanced Video Coding
Duration                                 : 23mn 37s
Bit rate                                 : 172 Kbps
Maximum bit rate                         : 1 543 Kbps
Width                                    : 640 pixels
Height                                   : 360 pixels
Display aspect ratio                     : 16:9
Frame rate mode                          : Constant
Frame rate                               : 23.976 fps
Color space                              : YUV
Chroma subsampling                       : 4:2:0
Bit depth                                : 8 bits
Scan type                                : Progressive
Bits/(Pixel*Frame)                       : 0.031
Stream size                              : 29.1 MiB (80%)
Writing library                          : x264 core 119 r2106 07efeb4
Encoding settings                        : cabac=1 / ref=6 / deblock=1:1:1 / analyse=0x3:0x133 / me=umh / subme=10 / psy=1 / psy_rd=0.25:0.00 / mixed_ref=1 / me_range=48 / chroma_me=1 / trellis=2 / 8x8dct=1 / cqm=0 / deadzone=21,11 / fast_pskip=1 / chroma_qp_offset=-2 / threads=12 / sliced_threads=0 / nr=0 / decimate=1 / interlaced=0 / bluray_compat=0 / constrained_intra=0 / bframes=3 / b_pyramid=2 / b_adapt=2 / b_bias=0 / direct=3 / weightb=1 / open_gop=0 / weightp=2 / keyint=250 / keyint_min=23 / scenecut=40 / intra_refresh=0 / rc_lookahead=60 / rc=crf / mbtree=1 / crf=28.0 / qcomp=0.70 / qpmin=0 / qpmax=69 / qpstep=4 / ip_ratio=1.40 / aq=1:0.40
Encoded date                             : UTC 2012-12-12 22:14:08
Tagged date                              : UTC 2012-12-12 22:14:09

Audio
ID                                       : 2
Format                                   : AAC
Format/Info                              : Advanced Audio Codec
Format profile                           : HE-AACv2 / HE-AAC / LC
Codec ID                                 : 40
Duration                                 : 23mn 37s
Bit rate mode                            : Variable
Bit rate                                 : 40.0 Kbps
Maximum bit rate                         : 45.5 Kbps
Channel(s)                               : 2 channels / 1 channel / 1 channel
Channel positions                        : Front: L R / Front: C / Front: C
Sampling rate                            : 44.1 KHz / 44.1 KHz / 22.05 KHz
Compression mode                         : Lossy
Stream size                              : 6.75 MiB (19%)
Encoded date                             : UTC 2012-12-12 22:14:09
Tagged date                              : UTC 2012-12-12 22:14:09

Other Files in this Torrent
Heavens Arena arc(27-38)/27-Arrival × At × The Arena.mp4
beta
Anime DDL+NZB mirror
Current Time: 15/07/2020 19:06



About/FAQs