13th Hunter Chairman Election arc(137-148)/148-Until Now x and x From Now.mp4


File Size40.79 MB (42,768,352 bytes)
DownloadAnonFiles | Go4Up | Jheberg | MultiUp | Sendspace | ShareBeast | SolidFiles | UsersFiles
HashesCRC32: 294489D5, MD5: 0F01BD31ED46782F52965397B44772A0, SHA1: E4CE856A066AE306CD06F3F598048CB8C7DEC669, ED2K: 108B60423D5E4D4AD25A7FE7320D2EE7
Screenshots
screenshotscreenshotscreenshotscreenshotscreenshot
Additional Info
General
Complete name                            : 148-Until Now x and x From Now.mp4
Format                                   : MPEG-4
Format profile                           : Base Media
Codec ID                                 : isom
File size                                : 40.8 MiB
Duration                                 : 23mn 22s
Overall bit rate mode                    : Variable
Overall bit rate                         : 244 Kbps
Encoded date                             : UTC 2014-09-23 19:03:39
Tagged date                              : UTC 2014-09-23 19:03:39

Video
ID                                       : 1
Format                                   : AVC
Format/Info                              : Advanced Video Codec
Format profile                           : High@L3.0
Format settings, CABAC                   : Yes
Format settings, ReFrames                : 4 frames
Codec ID                                 : avc1
Codec ID/Info                            : Advanced Video Coding
Duration                                 : 23mn 22s
Bit rate                                 : 144 Kbps
Maximum bit rate                         : 755 Kbps
Width                                    : 656 pixels
Height                                   : 368 pixels
Display aspect ratio                     : 16:9
Frame rate mode                          : Constant
Frame rate                               : 23.976 fps
Color space                              : YUV
Chroma subsampling                       : 4:2:0
Bit depth                                : 8 bits
Scan type                                : Progressive
Bits/(Pixel*Frame)                       : 0.025
Stream size                              : 24.2 MiB (59%)
Title                                    : Hunter_x_Hunter_Episode_148.h264:fps=23.976 - Imported with GPAC 0.5.0-rev4065
Writing library                          : x264 core 138 r2358 9e941d1
Encoding settings                        : cabac=1 / ref=4 / deblock=1:1:1 / analyse=0x3:0x113 / me=hex / subme=6 / psy=1 / psy_rd=0.40:0.00 / mixed_ref=1 / me_range=16 / chroma_me=1 / trellis=1 / 8x8dct=1 / cqm=0 / deadzone=21,11 / fast_pskip=1 / chroma_qp_offset=-2 / threads=32 / lookahead_threads=2 / sliced_threads=0 / nr=0 / decimate=1 / interlaced=0 / bluray_compat=0 / constrained_intra=0 / bframes=5 / b_pyramid=2 / b_adapt=1 / b_bias=0 / direct=1 / weightb=1 / open_gop=0 / weightp=1 / keyint=250 / keyint_min=23 / scenecut=40 / intra_refresh=0 / rc_lookahead=30 / rc=crf / mbtree=1 / crf=28.0 / qcomp=0.60 / qpmin=0 / qpmax=69 / qpstep=4 / ip_ratio=1.40 / aq=1:0.60
Encoded date                             : UTC 2014-09-23 19:03:39
Tagged date                              : UTC 2014-09-23 19:03:42

Audio
ID                                       : 2
Format                                   : AAC
Format/Info                              : Advanced Audio Codec
Format profile                           : LC
Codec ID                                 : 40
Duration                                 : 23mn 22s
Bit rate mode                            : Variable
Bit rate                                 : 96.0 Kbps
Maximum bit rate                         : 106 Kbps
Channel(s)                               : 2 channels
Channel positions                        : Front: L R
Sampling rate                            : 44.1 KHz
Compression mode                         : Lossy
Stream size                              : 16.0 MiB (39%)
Title                                    : Hunter_x_Hunter_Episode_148.aac:fps=23.976 - Imported with GPAC 0.5.0-rev4065
Encoded date                             : UTC 2014-09-23 19:03:41
Tagged date                              : UTC 2014-09-23 19:03:42

Other Files in this Torrent
13th Hunter Chairman Election arc(137-148)/148-Until Now x and x From Now.mp4
beta
Anime DDL+NZB mirror
Current Time: 24/02/2020 21:56



About/FAQs