Chimera Ants arc(76-136)/106-Knov × And × Morel.mp4


File Size41.19 MB (43,193,353 bytes)
DownloadAnonFiles | Go4Up | Jheberg | MultiUp | Sendspace | ShareBeast | SolidFiles | UsersFiles
HashesCRC32: 4BEEF6A9, MD5: F24ADAA160B65E4C59504588A152A1A8, SHA1: C27F6D78A6224E7559BDCED2A418C2DF5EF524C9, ED2K: 4AC867C1BA2E51A8152070D6CF1265A1
Screenshots
screenshotscreenshotscreenshotscreenshotscreenshot
Additional Info
General
Complete name                            : 106-Knov × And × Morel.mp4
Format                                   : MPEG-4
Format profile                           : Base Media
Codec ID                                 : isom
File size                                : 41.2 MiB
Duration                                 : 23mn 37s
Overall bit rate mode                    : Variable
Overall bit rate                         : 244 Kbps
Encoded date                             : UTC 2013-11-26 19:02:30
Tagged date                              : UTC 2013-11-26 19:02:30

Video
ID                                       : 1
Format                                   : AVC
Format/Info                              : Advanced Video Codec
Format profile                           : High@L3.0
Format settings, CABAC                   : Yes
Format settings, ReFrames                : 4 frames
Codec ID                                 : avc1
Codec ID/Info                            : Advanced Video Coding
Duration                                 : 23mn 37s
Bit rate                                 : 144 Kbps
Maximum bit rate                         : 1 241 Kbps
Width                                    : 656 pixels
Height                                   : 368 pixels
Display aspect ratio                     : 16:9
Original display aspect ratio            : 16:9
Frame rate mode                          : Constant
Frame rate                               : 23.976 fps
Color space                              : YUV
Chroma subsampling                       : 4:2:0
Bit depth                                : 8 bits
Scan type                                : Progressive
Bits/(Pixel*Frame)                       : 0.025
Stream size                              : 24.3 MiB (59%)
Title                                    : Hunter_x_Hunter_Episode_106.h264:fps=23.976 - Imported with GPAC 0.5.0-rev4065
Writing library                          : x264 core 138 r2358 9e941d1
Encoding settings                        : cabac=1 / ref=1 / deblock=1:1:1 / analyse=0x3:0x113 / me=hex / subme=2 / psy=1 / psy_rd=0.30:0.00 / mixed_ref=0 / me_range=16 / chroma_me=1 / trellis=0 / 8x8dct=1 / cqm=0 / deadzone=21,11 / fast_pskip=1 / chroma_qp_offset=0 / threads=32 / lookahead_threads=2 / sliced_threads=0 / nr=0 / decimate=1 / interlaced=0 / bluray_compat=0 / constrained_intra=0 / bframes=3 / b_pyramid=2 / b_adapt=1 / b_bias=0 / direct=1 / weightb=1 / open_gop=0 / weightp=1 / keyint=250 / keyint_min=23 / scenecut=40 / intra_refresh=0 / rc_lookahead=10 / rc=crf / mbtree=1 / crf=29.0 / qcomp=0.60 / qpmin=0 / qpmax=69 / qpstep=4 / ip_ratio=1.40 / aq=1:0.60
Encoded date                             : UTC 2013-11-26 19:02:30
Tagged date                              : UTC 2013-11-26 19:02:35

Audio
ID                                       : 2
Format                                   : AAC
Format/Info                              : Advanced Audio Codec
Format profile                           : LC
Codec ID                                 : 40
Duration                                 : 23mn 37s
Bit rate mode                            : Variable
Bit rate                                 : 96.0 Kbps
Maximum bit rate                         : 104 Kbps
Channel(s)                               : 2 channels
Channel positions                        : Front: L R
Sampling rate                            : 44.1 KHz
Compression mode                         : Lossy
Stream size                              : 16.2 MiB (39%)
Title                                    : Hunter_x_Hunter_Episode_106.aac:fps=23.976 - Imported with GPAC 0.5.0-rev4065
Encoded date                             : UTC 2013-11-26 19:02:33
Tagged date                              : UTC 2013-11-26 19:02:35

Other Files in this Torrent
Chimera Ants arc(76-136)/106-Knov × And × Morel.mp4
beta
Anime DDL+NZB mirror
Current Time: 04/04/2020 11:36



About/FAQs