Greed Island arc(59-75)/69-A × Heated × Showdown.mp4


File Size43.81 MB (45,938,481 bytes)
DownloadAnonFiles | Go4Up | Jheberg | MultiUp | Sendspace | ShareBeast | SolidFiles | UsersFiles
HashesCRC32: 62BFA6F0, MD5: FC70A49B0DCE17C1E903BDDB496BF03D, SHA1: 9FF92A4FD4F2074BF7E365F4EB672CE1420C5F6F, ED2K: 59840BFE167F408D67F15496AB5100C6
Screenshots
screenshotscreenshotscreenshotscreenshotscreenshot
Additional Info
General
Complete name                            : 69-A × Heated × Showdown.mp4
Format                                   : MPEG-4
Format profile                           : Base Media
Codec ID                                 : isom
File size                                : 43.8 MiB
Duration                                 : 23mn 37s
Overall bit rate mode                    : Variable
Overall bit rate                         : 259 Kbps
Encoded date                             : UTC 2013-03-03 04:34:16
Tagged date                              : UTC 2013-03-03 04:34:16

Video
ID                                       : 1
Format                                   : AVC
Format/Info                              : Advanced Video Codec
Format profile                           : High@L3.0
Format settings, CABAC                   : Yes
Format settings, ReFrames                : 4 frames
Codec ID                                 : avc1
Codec ID/Info                            : Advanced Video Coding
Duration                                 : 23mn 37s
Bit rate                                 : 160 Kbps
Maximum bit rate                         : 1 119 Kbps
Width                                    : 656 pixels
Height                                   : 368 pixels
Display aspect ratio                     : 16:9
Original display aspect ratio            : 16:9
Frame rate mode                          : Constant
Frame rate                               : 23.976 fps
Color space                              : YUV
Chroma subsampling                       : 4:2:0
Bit depth                                : 8 bits
Scan type                                : Progressive
Bits/(Pixel*Frame)                       : 0.028
Stream size                              : 27.0 MiB (62%)
Title                                    : _hunter_x_hunter_episode_69_a_x_heated_x_showdown.h264:fps=23.976 - Imported with GPAC 0.4.6-DEV-rev
Writing library                          : x264 core 129 r2230 1cffe9f
Encoding settings                        : cabac=1 / ref=3 / deblock=1:1:1 / analyse=0x3:0x113 / me=hex / subme=2 / psy=1 / psy_rd=0.30:0.00 / mixed_ref=0 / me_range=16 / chroma_me=1 / trellis=0 / 8x8dct=1 / cqm=0 / deadzone=21,11 / fast_pskip=1 / chroma_qp_offset=0 / threads=32 / lookahead_threads=5 / sliced_threads=0 / nr=0 / decimate=1 / interlaced=0 / bluray_compat=0 / constrained_intra=0 / bframes=3 / b_pyramid=2 / b_adapt=1 / b_bias=0 / direct=1 / weightb=1 / open_gop=0 / weightp=1 / keyint=250 / keyint_min=23 / scenecut=40 / intra_refresh=0 / rc_lookahead=10 / rc=crf / mbtree=1 / crf=28.0 / qcomp=0.60 / qpmin=0 / qpmax=69 / qpstep=4 / ip_ratio=1.40 / aq=1:0.60
Encoded date                             : UTC 2013-03-03 04:34:16
Tagged date                              : UTC 2013-03-03 04:34:17

Audio
ID                                       : 2
Format                                   : AAC
Format/Info                              : Advanced Audio Codec
Format profile                           : LC
Codec ID                                 : 40
Duration                                 : 23mn 37s
Bit rate mode                            : Variable
Bit rate                                 : 96.0 Kbps
Maximum bit rate                         : 105 Kbps
Channel(s)                               : 2 channels
Channel positions                        : Front: L R
Sampling rate                            : 44.1 KHz
Compression mode                         : Lossy
Stream size                              : 16.2 MiB (37%)
Title                                    : _hunter_x_hunter_episode_69_a_x_heated_x_showdown.aac:fps=23.976 - Imported with GPAC 0.4.6-DEV-rev
Encoded date                             : UTC 2013-03-03 04:34:17
Tagged date                              : UTC 2013-03-03 04:34:17

Other Files in this Torrent
Greed Island arc(59-75)/69-A × Heated × Showdown.mp4
beta
Anime DDL+NZB mirror
Current Time: 27/11/2020 10:45



About/FAQs