Greed Island arc(59-75)/75-Ging's Friends × And × True Friends.mp4


File Size44.20 MB (46,349,588 bytes)
DownloadAnonFiles | Go4Up | Jheberg | MultiUp | Sendspace | ShareBeast | SolidFiles | UsersFiles
HashesCRC32: 1C245EC7, MD5: 3B8A232D476190B43C2445FE8BD3C20A, SHA1: 0286DA79F5B9CB7CF71B5F47C219D7250002845A, ED2K: 8A4E122645DF274B1756CA82C74B5348
Screenshots
screenshotscreenshotscreenshotscreenshotscreenshot
Additional Info
General
Complete name                            : 75-Ging's Friends × And × True Friends.mp4
Format                                   : MPEG-4
Format profile                           : Base Media
Codec ID                                 : isom
File size                                : 44.2 MiB
Duration                                 : 23mn 37s
Overall bit rate mode                    : Variable
Overall bit rate                         : 262 Kbps
Encoded date                             : UTC 2013-04-14 04:16:21
Tagged date                              : UTC 2013-04-14 04:16:21

Video
ID                                       : 1
Format                                   : AVC
Format/Info                              : Advanced Video Codec
Format profile                           : High@L3.0
Format settings, CABAC                   : Yes
Format settings, ReFrames                : 4 frames
Codec ID                                 : avc1
Codec ID/Info                            : Advanced Video Coding
Duration                                 : 23mn 37s
Bit rate                                 : 162 Kbps
Maximum bit rate                         : 1 166 Kbps
Width                                    : 656 pixels
Height                                   : 368 pixels
Display aspect ratio                     : 16:9
Original display aspect ratio            : 16:9
Frame rate mode                          : Constant
Frame rate                               : 23.976 fps
Color space                              : YUV
Chroma subsampling                       : 4:2:0
Bit depth                                : 8 bits
Scan type                                : Progressive
Bits/(Pixel*Frame)                       : 0.028
Stream size                              : 27.3 MiB (62%)
Title                                    : _hunter_x_hunter_episode_75.h264:fps=23.976 - Imported with GPAC 0.4.6-DEV-rev
Writing library                          : x264 core 129 r2230 1cffe9f
Encoding settings                        : cabac=1 / ref=3 / deblock=1:1:1 / analyse=0x3:0x113 / me=hex / subme=2 / psy=1 / psy_rd=0.30:0.00 / mixed_ref=0 / me_range=16 / chroma_me=1 / trellis=0 / 8x8dct=1 / cqm=0 / deadzone=21,11 / fast_pskip=1 / chroma_qp_offset=0 / threads=32 / lookahead_threads=5 / sliced_threads=0 / nr=0 / decimate=1 / interlaced=0 / bluray_compat=0 / constrained_intra=0 / bframes=3 / b_pyramid=2 / b_adapt=1 / b_bias=0 / direct=1 / weightb=1 / open_gop=0 / weightp=1 / keyint=250 / keyint_min=23 / scenecut=40 / intra_refresh=0 / rc_lookahead=10 / rc=crf / mbtree=1 / crf=28.0 / qcomp=0.60 / qpmin=0 / qpmax=69 / qpstep=4 / ip_ratio=1.40 / aq=1:0.60
Encoded date                             : UTC 2013-04-14 04:16:21
Tagged date                              : UTC 2013-04-14 04:16:21

Audio
ID                                       : 2
Format                                   : AAC
Format/Info                              : Advanced Audio Codec
Format profile                           : LC
Codec ID                                 : 40
Duration                                 : 23mn 37s
Bit rate mode                            : Variable
Bit rate                                 : 96.0 Kbps
Maximum bit rate                         : 104 Kbps
Channel(s)                               : 2 channels
Channel positions                        : Front: L R
Sampling rate                            : 44.1 KHz
Compression mode                         : Lossy
Stream size                              : 16.2 MiB (37%)
Title                                    : _hunter_x_hunter_episode_75.aac:fps=23.976 - Imported with GPAC 0.4.6-DEV-rev
Encoded date                             : UTC 2013-04-14 04:16:21
Tagged date                              : UTC 2013-04-14 04:16:21

Other Files in this Torrent
Greed Island arc(59-75)/75-Ging's Friends × And × True Friends.mp4
beta
Anime DDL+NZB mirror
Current Time: 18/02/2020 07:58



About/FAQs