Greed Island arc(59-75)/65-Evil Fist × And × Rock-Paper-Scissors.mp4


File Size59.26 MB (62,142,275 bytes)
DownloadAnonFiles | Go4Up | Jheberg | MultiUp | Sendspace | ShareBeast | SolidFiles | UsersFiles
HashesCRC32: FD3D40B0, MD5: 23FF2B5B7CD727B988CA34BCDF653CBB, SHA1: 7BF42E6E547E9F31D62E8D916335C0535ECACF9F, ED2K: 895DBB57F206A7A6E2FD99AF4FD11C79
Screenshots
screenshotscreenshotscreenshotscreenshotscreenshot
Additional Info
General
Complete name                            : 65-Evil Fist × And × Rock-Paper-Scissors.mp4
Format                                   : MPEG-4
Format profile                           : Base Media / Version 2
Codec ID                                 : mp42
File size                                : 59.3 MiB
Duration                                 : 23mn 23s
Overall bit rate mode                    : Variable
Overall bit rate                         : 354 Kbps
Encoded date                             : UTC 2013-02-03 04:30:27
Tagged date                              : UTC 2013-02-03 04:30:48
Writing application                      : HandBrake 0.9.8 2012071700

Video
ID                                       : 1
Format                                   : AVC
Format/Info                              : Advanced Video Codec
Format profile                           : Main@L2.1
Format settings, CABAC                   : Yes
Format settings, ReFrames                : 1 frame
Codec ID                                 : avc1
Codec ID/Info                            : Advanced Video Coding
Duration                                 : 23mn 23s
Bit rate                                 : 238 Kbps
Width                                    : 512 pixels
Height                                   : 288 pixels
Display aspect ratio                     : 16:9
Frame rate mode                          : Variable
Frame rate                               : 23.460 fps
Minimum frame rate                       : 8.000 fps
Maximum frame rate                       : 24.390 fps
Color space                              : YUV
Chroma subsampling                       : 4:2:0
Bit depth                                : 8 bits
Scan type                                : Progressive
Bits/(Pixel*Frame)                       : 0.069
Stream size                              : 39.9 MiB (67%)
Writing library                          : x264 core 120
Encoding settings                        : cabac=1 / ref=1 / deblock=1:0:0 / analyse=0x1:0x1 / me=hex / subme=2 / psy=1 / psy_rd=1.00:0.00 / mixed_ref=0 / me_range=16 / chroma_me=1 / trellis=0 / 8x8dct=0 / cqm=0 / deadzone=21,11 / fast_pskip=1 / chroma_qp_offset=0 / threads=12 / sliced_threads=0 / nr=0 / decimate=1 / interlaced=0 / bluray_compat=0 / constrained_intra=0 / bframes=0 / weightp=1 / keyint=240 / keyint_min=24 / scenecut=40 / intra_refresh=0 / rc_lookahead=10 / rc=crf / mbtree=1 / crf=23.0 / qcomp=0.60 / qpmin=3 / qpmax=69 / qpstep=4 / ip_ratio=1.40 / aq=1:1.00
Encoded date                             : UTC 2013-02-03 04:30:27
Tagged date                              : UTC 2013-02-03 04:30:48
Color primaries                          : BT.601 NTSC
Transfer characteristics                 : BT.709
Matrix coefficients                      : BT.601

Audio
ID                                       : 2
Format                                   : AAC
Format/Info                              : Advanced Audio Codec
Format profile                           : LC
Codec ID                                 : 40
Duration                                 : 23mn 23s
Bit rate mode                            : Variable
Bit rate                                 : 112 Kbps
Maximum bit rate                         : 247 Kbps
Channel(s)                               : 2 channels
Channel positions                        : Front: L R
Sampling rate                            : 48.0 KHz
Compression mode                         : Lossy
Stream size                              : 18.7 MiB (32%)
Encoded date                             : UTC 2013-02-03 04:30:27
Tagged date                              : UTC 2013-02-03 04:30:47

Other Files in this Torrent
Greed Island arc(59-75)/65-Evil Fist × And × Rock-Paper-Scissors.mp4
beta
Anime DDL+NZB mirror
Current Time: 27/11/2020 11:13



About/FAQs