Chimera Ants arc(76-136)/100-Tracking × And × Pursuit.MP4


File Size51.00 MB (53,477,372 bytes)
DownloadAnonFiles | Go4Up | Jheberg | MultiUp | Sendspace | ShareBeast | SolidFiles | UsersFiles
HashesCRC32: 5854E9D2, MD5: 492259732DAAAC1501B35B0111E21E83, SHA1: F00D1BCB95040CFC9CA74A10D6A63DC474B352CD, ED2K: 61B665ED285A0D51532E21B307C7F6FE
Screenshots
screenshotscreenshotscreenshotscreenshotscreenshot
Additional Info
General
Complete name                            : 100-Tracking × And × Pursuit.MP4
Format                                   : MPEG-4
Format profile                           : Base Media
Codec ID                                 : isom
File size                                : 51.0 MiB
Duration                                 : 23mn 37s
Overall bit rate mode                    : Variable
Overall bit rate                         : 302 Kbps
Encoded date                             : UTC 2013-10-15 18:05:04
Tagged date                              : UTC 2013-10-15 18:05:04

Video
ID                                       : 1
Format                                   : AVC
Format/Info                              : Advanced Video Codec
Format profile                           : High@L3.0
Format settings, CABAC                   : Yes
Format settings, ReFrames                : 4 frames
Codec ID                                 : avc1
Codec ID/Info                            : Advanced Video Coding
Duration                                 : 23mn 37s
Bit rate                                 : 202 Kbps
Maximum bit rate                         : 1 245 Kbps
Width                                    : 656 pixels
Height                                   : 368 pixels
Display aspect ratio                     : 16:9
Original display aspect ratio            : 16:9
Frame rate mode                          : Constant
Frame rate                               : 23.976 fps
Color space                              : YUV
Chroma subsampling                       : 4:2:0
Bit depth                                : 8 bits
Scan type                                : Progressive
Bits/(Pixel*Frame)                       : 0.035
Stream size                              : 34.2 MiB (67%)
Title                                    : Hunter_x_Hunter_Episode_100.h264:fps=23.976 - Imported with GPAC 0.5.0-rev4065
Writing library                          : x264 core 138 r2358 9e941d1
Encoding settings                        : cabac=1 / ref=1 / deblock=1:1:1 / analyse=0x3:0x113 / me=hex / subme=2 / psy=1 / psy_rd=0.30:0.00 / mixed_ref=0 / me_range=16 / chroma_me=1 / trellis=0 / 8x8dct=1 / cqm=0 / deadzone=21,11 / fast_pskip=1 / chroma_qp_offset=0 / threads=32 / lookahead_threads=2 / sliced_threads=0 / nr=0 / decimate=1 / interlaced=0 / bluray_compat=0 / constrained_intra=0 / bframes=3 / b_pyramid=2 / b_adapt=1 / b_bias=0 / direct=1 / weightb=1 / open_gop=0 / weightp=1 / keyint=250 / keyint_min=23 / scenecut=40 / intra_refresh=0 / rc_lookahead=10 / rc=crf / mbtree=1 / crf=29.0 / qcomp=0.60 / qpmin=0 / qpmax=69 / qpstep=4 / ip_ratio=1.40 / aq=1:0.60
Encoded date                             : UTC 2013-10-15 18:05:04
Tagged date                              : UTC 2013-10-15 18:05:09

Audio
ID                                       : 2
Format                                   : AAC
Format/Info                              : Advanced Audio Codec
Format profile                           : LC
Codec ID                                 : 40
Duration                                 : 23mn 37s
Bit rate mode                            : Variable
Bit rate                                 : 96.0 Kbps
Maximum bit rate                         : 106 Kbps
Channel(s)                               : 2 channels
Channel positions                        : Front: L R
Sampling rate                            : 44.1 KHz
Compression mode                         : Lossy
Stream size                              : 16.2 MiB (32%)
Title                                    : Hunter_x_Hunter_Episode_100.aac:fps=23.976 - Imported with GPAC 0.5.0-rev4065
Encoded date                             : UTC 2013-10-15 18:05:07
Tagged date                              : UTC 2013-10-15 18:05:09

Other Files in this Torrent
Chimera Ants arc(76-136)/100-Tracking × And × Pursuit.MP4
beta
Anime DDL+NZB mirror
Current Time: 24/02/2020 20:51



About/FAQs