Chimera Ants arc(76-136)/135 -This Day × And × This Moment.mp4


File Size36.88 MB (38,669,173 bytes)
DownloadAnonFiles | Go4Up | Jheberg | MultiUp | Sendspace | ShareBeast | SolidFiles | UsersFiles
HashesCRC32: 4E350575, MD5: 4DB3EEA40E58C34BAA880CB76752FCFC, SHA1: B66603D5649686801854DB301AD885D4397A8567, ED2K: DD47A04C16358C896E385F095B813EE5
Screenshots
screenshotscreenshotscreenshotscreenshotscreenshot
Additional Info
General
Complete name                            : 135 -This Day × And × This Moment.mp4
Format                                   : MPEG-4
Format profile                           : Base Media
Codec ID                                 : isom
File size                                : 36.9 MiB
Duration                                 : 23mn 42s
Overall bit rate mode                    : Variable
Overall bit rate                         : 218 Kbps
Encoded date                             : UTC 2014-06-24 19:01:46
Tagged date                              : UTC 2014-06-24 19:01:46

Video
ID                                       : 1
Format                                   : AVC
Format/Info                              : Advanced Video Codec
Format profile                           : High@L3.0
Format settings, CABAC                   : Yes
Format settings, ReFrames                : 4 frames
Codec ID                                 : avc1
Codec ID/Info                            : Advanced Video Coding
Duration                                 : 23mn 42s
Bit rate                                 : 118 Kbps
Maximum bit rate                         : 1 151 Kbps
Width                                    : 656 pixels
Height                                   : 368 pixels
Display aspect ratio                     : 16:9
Frame rate mode                          : Constant
Frame rate                               : 23.976 fps
Color space                              : YUV
Chroma subsampling                       : 4:2:0
Bit depth                                : 8 bits
Scan type                                : Progressive
Bits/(Pixel*Frame)                       : 0.020
Stream size                              : 20.0 MiB (54%)
Title                                    : Hunter_x_Hunter_Episode_135.h264:fps=23.976 - Imported with GPAC 0.5.0-rev4065
Writing library                          : x264 core 138 r2358 9e941d1
Encoding settings                        : cabac=1 / ref=4 / deblock=1:1:1 / analyse=0x3:0x113 / me=hex / subme=6 / psy=1 / psy_rd=0.40:0.00 / mixed_ref=1 / me_range=16 / chroma_me=1 / trellis=1 / 8x8dct=1 / cqm=0 / deadzone=21,11 / fast_pskip=1 / chroma_qp_offset=-2 / threads=32 / lookahead_threads=2 / sliced_threads=0 / nr=0 / decimate=1 / interlaced=0 / bluray_compat=0 / constrained_intra=0 / bframes=5 / b_pyramid=2 / b_adapt=1 / b_bias=0 / direct=1 / weightb=1 / open_gop=0 / weightp=1 / keyint=250 / keyint_min=23 / scenecut=40 / intra_refresh=0 / rc_lookahead=30 / rc=crf / mbtree=1 / crf=28.0 / qcomp=0.60 / qpmin=0 / qpmax=69 / qpstep=4 / ip_ratio=1.40 / aq=1:0.60
Encoded date                             : UTC 2014-06-24 19:01:46
Tagged date                              : UTC 2014-06-24 19:01:47

Audio
ID                                       : 2
Format                                   : AAC
Format/Info                              : Advanced Audio Codec
Format profile                           : LC
Codec ID                                 : 40
Duration                                 : 23mn 42s
Bit rate mode                            : Variable
Bit rate                                 : 96.0 Kbps
Maximum bit rate                         : 107 Kbps
Channel(s)                               : 2 channels
Channel positions                        : Front: L R
Sampling rate                            : 44.1 KHz
Compression mode                         : Lossy
Stream size                              : 16.3 MiB (44%)
Title                                    : Hunter_x_Hunter_Episode_135.aac:fps=23.976 - Imported with GPAC 0.5.0-rev4065
Encoded date                             : UTC 2014-06-24 19:01:47
Tagged date                              : UTC 2014-06-24 19:01:47

Other Files in this Torrent
Chimera Ants arc(76-136)/135 -This Day × And × This Moment.mp4
beta
Anime DDL+NZB mirror
Current Time: 30/09/2020 02:14



About/FAQs