Chimera Ants arc(76-136)/130-Magic × And × Despair.MP4


File Size42.34 MB (44,398,749 bytes)
DownloadAnonFiles | Go4Up | Jheberg | MultiUp | Sendspace | ShareBeast | SolidFiles | UsersFiles
HashesCRC32: 937F9B53, MD5: ECCEC1E4BFB0B07110C41C2C582E82AE, SHA1: B3D60381EDFF9A5604432CE9009F268E3409921B, ED2K: B59039FE0EDCBB204159D87CEA18AA7C
Screenshots
screenshotscreenshotscreenshotscreenshotscreenshot
Additional Info
General
Complete name                            : 130-Magic × And × Despair.MP4
Format                                   : MPEG-4
Format profile                           : Base Media / Version 2
Codec ID                                 : mp42
File size                                : 42.3 MiB
Duration                                 : 23mn 37s
Overall bit rate mode                    : Variable
Overall bit rate                         : 251 Kbps
Encoded date                             : UTC 2014-05-20 21:08:31
Tagged date                              : UTC 2014-05-20 21:14:29
Writing application                      : HandBrake rev3736 2011011599

Video
ID                                       : 1
Format                                   : AVC
Format/Info                              : Advanced Video Codec
Format profile                           : High@L3.1
Format settings, CABAC                   : Yes
Format settings, ReFrames                : 4 frames
Codec ID                                 : avc1
Codec ID/Info                            : Advanced Video Coding
Duration                                 : 23mn 37s
Bit rate                                 : 199 Kbps
Width                                    : 854 pixels
Height                                   : 482 pixels
Display aspect ratio                     : 16:9
Original display aspect ratio            : 16:9
Frame rate mode                          : Variable
Frame rate                               : 23.810 fps
Minimum frame rate                       : 23.810 fps
Maximum frame rate                       : 23.816 fps
Color space                              : YUV
Chroma subsampling                       : 4:2:0
Bit depth                                : 8 bits
Scan type                                : Progressive
Bits/(Pixel*Frame)                       : 0.020
Stream size                              : 33.6 MiB (79%)
Writing library                          : x264 core 112
Encoding settings                        : cabac=1 / ref=3 / deblock=1:0:0 / analyse=0x3:0x113 / me=hex / subme=7 / psy=1 / psy_rd=1.00:0.00 / mixed_ref=1 / me_range=16 / chroma_me=1 / trellis=1 / 8x8dct=1 / cqm=0 / deadzone=21,11 / fast_pskip=1 / chroma_qp_offset=-2 / threads=12 / sliced_threads=0 / nr=0 / decimate=1 / interlaced=0 / constrained_intra=0 / bframes=3 / b_pyramid=2 / b_adapt=1 / b_bias=0 / direct=1 / weightb=1 / open_gop=0 / weightp=2 / keyint=240 / keyint_min=23 / scenecut=40 / intra_refresh=0 / rc_lookahead=40 / rc=crf / mbtree=1 / crf=31.0 / qcomp=0.60 / qpmin=3 / qpmax=51 / qpstep=4 / ip_ratio=1.40 / aq=1:1.00
Encoded date                             : UTC 2014-05-20 21:08:31
Tagged date                              : UTC 2014-05-20 21:11:19
Color primaries                          : BT.601 NTSC
Transfer characteristics                 : BT.709
Matrix coefficients                      : BT.601

Audio
ID                                       : 2
Format                                   : AAC
Format/Info                              : Advanced Audio Codec
Format profile                           : LC
Codec ID                                 : 40
Duration                                 : 23mn 37s
Bit rate mode                            : Variable
Bit rate                                 : 48.0 Kbps
Maximum bit rate                         : 98.4 Kbps
Channel(s)                               : 1 channel
Channel positions                        : Front: C
Sampling rate                            : 32.0 KHz
Compression mode                         : Lossy
Stream size                              : 8.10 MiB (19%)
Encoded date                             : UTC 2014-05-20 21:08:31
Tagged date                              : UTC 2014-05-20 21:11:19

Other Files in this Torrent
Chimera Ants arc(76-136)/130-Magic × And × Despair.MP4
beta
Anime DDL+NZB mirror
Current Time: 29/09/2020 08:49



About/FAQs