Chimera Ants arc(76-136)/82-Kite × And × Slots.mp4


File Size79.35 MB (83,202,052 bytes)
DownloadAnonFiles | Go4Up | Jheberg | MultiUp | Sendspace | ShareBeast | SolidFiles | UsersFiles
HashesCRC32: 827ACBA1, MD5: 18F1003B94C5065F690D412115435875, SHA1: B1046C90599E03A53F291EFF8C2FBEAF2B34DD27, ED2K: 52D2967E6844F8B8D2E88AA8199980A3
Screenshots
screenshotscreenshotscreenshotscreenshotscreenshot
Additional Info
General
Complete name                            : 82-Kite × And × Slots.mp4
Format                                   : MPEG-4
Format profile                           : Base Media
Codec ID                                 : isom
File size                                : 79.3 MiB
Duration                                 : 23mn 39s
Overall bit rate mode                    : Variable
Overall bit rate                         : 469 Kbps
Encoded date                             : UTC 2013-06-02 03:39:42
Tagged date                              : UTC 2013-06-02 03:39:42
Writing application                      : Lavf54.63.104

Video
ID                                       : 1
Format                                   : MPEG-4 Visual
Format profile                           : Simple@L1
Format settings, BVOP                    : No
Format settings, QPel                    : No
Format settings, GMC                     : No warppoints
Format settings, Matrix                  : Default (H.263)
Codec ID                                 : 20
Duration                                 : 23mn 39s
Bit rate mode                            : Constant
Bit rate                                 : 313 Kbps
Width                                    : 640 pixels
Height                                   : 360 pixels
Display aspect ratio                     : 16:9
Frame rate mode                          : Constant
Frame rate                               : 23.976 fps
Color space                              : YUV
Chroma subsampling                       : 4:2:0
Bit depth                                : 8 bits
Scan type                                : Progressive
Compression mode                         : Lossy
Bits/(Pixel*Frame)                       : 0.057
Stream size                              : 52.9 MiB (67%)
Writing library                          : Lavc54.92.100
Encoded date                             : UTC 2013-06-02 03:39:42
Tagged date                              : UTC 2013-06-02 03:39:42

Audio
ID                                       : 2
Format                                   : AAC
Format/Info                              : Advanced Audio Codec
Format profile                           : LC
Codec ID                                 : 40
Duration                                 : 23mn 39s
Duration_FirstFrame                      : 70ms
Bit rate mode                            : Variable
Bit rate                                 : 152 Kbps
Maximum bit rate                         : 176 Kbps
Channel(s)                               : 2 channels
Channel positions                        : Front: L R
Sampling rate                            : 44.1 KHz
Compression mode                         : Lossy
Stream size                              : 25.7 MiB (32%)
Encoded date                             : UTC 2013-06-02 03:39:42
Tagged date                              : UTC 2013-06-02 03:39:42

Other Files in this Torrent
Chimera Ants arc(76-136)/82-Kite × And × Slots.mp4
beta
Anime DDL+NZB mirror
Current Time: 18/01/2020 09:25



About/FAQs