Chimera Ants arc(76-136)/126-Zero × And × Rose.mp4


File Size55.32 MB (58,006,201 bytes)
DownloadAnonFiles | Go4Up | Jheberg | MultiUp | Sendspace | ShareBeast | SolidFiles | UsersFiles
HashesCRC32: 7A66BCD1, MD5: 60F8394993F00628654C5D0971F3D8E6, SHA1: C4A4D2E35B66B256AA2A59D2504897832820538A, ED2K: 10970AEA9C67995F001B1D1973F4705A
Screenshots
screenshotscreenshotscreenshotscreenshotscreenshot
Additional Info
General
Complete name                            : 126-Zero × And × Rose.mp4
Format                                   : MPEG-4
Format profile                           : Base Media / Version 2
Codec ID                                 : mp42
File size                                : 55.3 MiB
Duration                                 : 23mn 37s
Overall bit rate mode                    : Variable
Overall bit rate                         : 327 Kbps
Encoded date                             : UTC 2014-04-22 19:13:27
Tagged date                              : UTC 2014-04-22 19:20:07

Video
ID                                       : 1
Format                                   : AVC
Format/Info                              : Advanced Video Codec
Format profile                           : High@L3.0
Format settings, CABAC                   : Yes
Format settings, ReFrames                : 8 frames
Codec ID                                 : avc1
Codec ID/Info                            : Advanced Video Coding
Duration                                 : 23mn 37s
Bit rate                                 : 226 Kbps
Width                                    : 640 pixels
Height                                   : 358 pixels
Display aspect ratio                     : 16:9
Original display aspect ratio            : 16:9
Frame rate mode                          : Variable
Frame rate                               : 23.976 fps
Minimum frame rate                       : 23.810 fps
Maximum frame rate                       : 1 000.000 fps
Color space                              : YUV
Chroma subsampling                       : 4:2:0
Bit depth                                : 8 bits
Scan type                                : Progressive
Bits/(Pixel*Frame)                       : 0.041
Stream size                              : 38.2 MiB (69%)
Writing library                          : x264 core 130 r2273 b3065e6
Encoding settings                        : cabac=1 / ref=8 / deblock=1:0:0 / analyse=0x3:0x133 / me=umh / subme=10 / psy=1 / psy_rd=1.00:0.00 / mixed_ref=1 / me_range=24 / chroma_me=1 / trellis=2 / 8x8dct=1 / cqm=0 / deadzone=21,11 / fast_pskip=1 / chroma_qp_offset=-2 / threads=12 / lookahead_threads=2 / sliced_threads=0 / nr=0 / decimate=1 / interlaced=0 / bluray_compat=0 / constrained_intra=0 / bframes=8 / b_pyramid=2 / b_adapt=2 / b_bias=0 / direct=3 / weightb=1 / open_gop=0 / weightp=2 / keyint=240 / keyint_min=24 / scenecut=40 / intra_refresh=0 / rc_lookahead=60 / rc=crf / mbtree=1 / crf=27.0 / qcomp=0.60 / qpmin=0 / qpmax=69 / qpstep=4 / vbv_maxrate=12500 / vbv_bufsize=12500 / crf_max=0.0 / nal_hrd=none / ip_ratio=1.40 / aq=1:1.00
Encoded date                             : UTC 2014-04-22 19:13:27
Tagged date                              : UTC 2014-04-22 19:20:07
Color primaries                          : BT.601 NTSC
Transfer characteristics                 : BT.709
Matrix coefficients                      : BT.601

Audio
ID                                       : 2
Format                                   : AAC
Format/Info                              : Advanced Audio Codec
Format profile                           : LC
Codec ID                                 : 40
Duration                                 : 23mn 37s
Bit rate mode                            : Variable
Bit rate                                 : 96.0 Kbps
Maximum bit rate                         : 192 Kbps
Channel(s)                               : 2 channels
Channel positions                        : Front: L R
Sampling rate                            : 44.1 KHz
Compression mode                         : Lossy
Stream size                              : 16.2 MiB (29%)
Encoded date                             : UTC 2014-04-22 19:13:27
Tagged date                              : UTC 2014-04-22 19:20:06

Other Files in this Torrent
Chimera Ants arc(76-136)/126-Zero × And × Rose.mp4
beta
Anime DDL+NZB mirror
Current Time: 25/05/2020 10:29



About/FAQs