13th Hunter Chairman Election arc(137-148)/141-Magician × And × Butler.mp4


File Size49.52 MB (51,921,028 bytes)
DownloadAnonFiles | Go4Up | Jheberg | MultiUp | Sendspace | ShareBeast | SolidFiles | UsersFiles
HashesCRC32: EC545EC8, MD5: 3080896F9F98BCC95E26767BEFE63EEA, SHA1: A426AA25E2935D80AB7BE1FA3077FBDFD934ED8B, ED2K: FA41EB19838AFCCE1B2AFAE9734A1392
Screenshots
screenshotscreenshotscreenshotscreenshotscreenshot
Additional Info
General
Complete name                            : 141-Magician × And × Butler.mp4
Format                                   : MPEG-4
Format profile                           : Base Media
Codec ID                                 : isom
File size                                : 49.5 MiB
Duration                                 : 23mn 37s
Overall bit rate mode                    : Variable
Overall bit rate                         : 293 Kbps
Encoded date                             : UTC 2014-08-05 19:01:59
Tagged date                              : UTC 2014-08-05 19:01:59

Video
ID                                       : 1
Format                                   : AVC
Format/Info                              : Advanced Video Codec
Format profile                           : High@L3.0
Format settings, CABAC                   : Yes
Format settings, ReFrames                : 4 frames
Codec ID                                 : avc1
Codec ID/Info                            : Advanced Video Coding
Duration                                 : 23mn 37s
Bit rate                                 : 194 Kbps
Maximum bit rate                         : 1 464 Kbps
Width                                    : 656 pixels
Height                                   : 368 pixels
Display aspect ratio                     : 16:9
Frame rate mode                          : Constant
Frame rate                               : 23.976 fps
Color space                              : YUV
Chroma subsampling                       : 4:2:0
Bit depth                                : 8 bits
Scan type                                : Progressive
Bits/(Pixel*Frame)                       : 0.033
Stream size                              : 32.7 MiB (66%)
Title                                    : Hunter_x_Hunter_Episode_141.h264:fps=23.976 - Imported with GPAC 0.5.0-rev4065
Writing library                          : x264 core 138 r2358 9e941d1
Encoding settings                        : cabac=1 / ref=4 / deblock=1:1:1 / analyse=0x3:0x113 / me=hex / subme=6 / psy=1 / psy_rd=0.40:0.00 / mixed_ref=1 / me_range=16 / chroma_me=1 / trellis=1 / 8x8dct=1 / cqm=0 / deadzone=21,11 / fast_pskip=1 / chroma_qp_offset=-2 / threads=32 / lookahead_threads=2 / sliced_threads=0 / nr=0 / decimate=1 / interlaced=0 / bluray_compat=0 / constrained_intra=0 / bframes=5 / b_pyramid=2 / b_adapt=1 / b_bias=0 / direct=1 / weightb=1 / open_gop=0 / weightp=1 / keyint=250 / keyint_min=23 / scenecut=40 / intra_refresh=0 / rc_lookahead=30 / rc=crf / mbtree=1 / crf=28.0 / qcomp=0.60 / qpmin=0 / qpmax=69 / qpstep=4 / ip_ratio=1.40 / aq=1:0.60
Encoded date                             : UTC 2014-08-05 19:01:59
Tagged date                              : UTC 2014-08-05 19:02:01

Audio
ID                                       : 2
Format                                   : AAC
Format/Info                              : Advanced Audio Codec
Format profile                           : LC
Codec ID                                 : 40
Duration                                 : 23mn 37s
Bit rate mode                            : Variable
Bit rate                                 : 96.0 Kbps
Maximum bit rate                         : 106 Kbps
Channel(s)                               : 2 channels
Channel positions                        : Front: L R
Sampling rate                            : 44.1 KHz
Compression mode                         : Lossy
Stream size                              : 16.2 MiB (33%)
Title                                    : Hunter_x_Hunter_Episode_141.aac:fps=23.976 - Imported with GPAC 0.5.0-rev4065
Encoded date                             : UTC 2014-08-05 19:02:00
Tagged date                              : UTC 2014-08-05 19:02:01

Other Files in this Torrent
13th Hunter Chairman Election arc(137-148)/141-Magician × And × Butler.mp4
beta
Anime DDL+NZB mirror
Current Time: 29/03/2020 15:58



About/FAQs