[Techmod] Monster Strike - The Fading Cosmos 13 [627292F2].mkv


File Size57.23 MB (60,011,281 bytes)
DownloadAnonFiles | ClickNUpload | DownloadGG | KrakenFiles | MultiUp
  • BdUpload
  • DownAce
  • Fichier
  • FileCloud
  • Filerio
  • FilesCdn
  • IndiShare
  • Kbagi
  • Turbobit
  • UpToBox
  • Uppit
| ZippyShare
HashesCRC32: 627292F2, MD5: D5438DFF88072C325F9F3EBDCBC0D7C9, SHA1: 076EAEC0078C7BC3CD273F2CC50AAD96FCC83142, SHA256: 0AC5C56F0888355FAEF305135A87CD69CCC223FE8328A35CD4A7EAC1B7CDB068, ED2K: FC2190944ABE5D97AA1A7771C9F8C451
Screenshots
screenshotscreenshotscreenshotscreenshotscreenshot
Additional Info
General
Unique ID                                : 57199398297108710713955090902428367299 (0x2B083411E66AFDCC998743B0C8B739C3)
Complete name                            : [Techmod] Monster Strike - The Fading Cosmos 13 [627292F2].mkv
Format                                   : Matroska
Format version                           : Version 4
File size                                : 57.2 MiB
Duration                                 : 7 min 42 s
Overall bit rate                         : 1 038 kb/s
Encoded date                             : UTC 2022-04-08 02:28:39
Writing application                      : mkvmerge v66.0.0 ('Josie') 64-bit
Writing library                          : libebml v1.4.2 + libmatroska v1.6.4

Video
ID                                       : 1
Format                                   : AVC
Format/Info                              : Advanced Video Codec
Format profile                           : High@L4
Format settings                          : CABAC / 3 Ref Frames
Format settings, CABAC                   : Yes
Format settings, Reference frames        : 3 frames
Codec ID                                 : V_MPEG4/ISO/AVC
Duration                                 : 7 min 42 s
Bit rate                                 : 910 kb/s
Width                                    : 1 920 pixels
Height                                   : 1 080 pixels
Display aspect ratio                     : 16:9
Frame rate mode                          : Constant
Frame rate                               : 23.976 (24000/1001) FPS
Color space                              : YUV
Chroma subsampling                       : 4:2:0
Bit depth                                : 8 bits
Scan type                                : Progressive
Bits/(Pixel*Frame)                       : 0.018
Stream size                              : 50.2 MiB (88%)
Language                                 : Japanese
Default                                  : Yes
Forced                                   : No
Color range                              : Limited
Color primaries                          : BT.709
Transfer characteristics                 : BT.709
Matrix coefficients                      : BT.709

Audio
ID                                       : 2
Format                                   : AAC LC
Format/Info                              : Advanced Audio Codec Low Complexity
Codec ID                                 : A_AAC-2
Duration                                 : 7 min 42 s
Bit rate                                 : 126 kb/s
Channel(s)                               : 2 channels
Channel layout                           : L R
Sampling rate                            : 44.1 kHz
Frame rate                               : 43.066 FPS (1024 SPF)
Compression mode                         : Lossy
Stream size                              : 6.92 MiB (12%)
Language                                 : Japanese
Default                                  : Yes
Forced                                   : No

Other Files in this Torrent
[Techmod] Monster Strike - The Fading Cosmos 13 [627292F2].mkv
beta
Anime DDL+NZB mirror
Current Time: 28/06/2022 14:31



About/FAQs

Discord