[Techmod] Monster Strike the Anime S02E13 [0249BB71].mkv


File Size259.1 MB (271,731,682 bytes)
DownloadAnonFiles | ClickNUpload | DownloadGG | KrakenFiles | MultiUp
  • BdUpload
  • DownAce
  • Fichier
  • FileCloud
  • Filerio
  • FilesCdn
  • IndiShare
  • Kbagi
  • Turbobit
  • UpToBox
  • Uppit
| ZippyShare
HashesCRC32: 0249BB71, MD5: 3411AFF9C42981A602778C58639686C5, SHA1: FB60B5EE847CB67F8BE5533DF80E9A041EE0A335, SHA256: 551CB4CC2D5A2EEAE628372CD3AA29337C4B26F93271639F53FFD1130E5F5449, ED2K: F0BDCB3B8F4E9DAB5B02380A3F6BBD36
Screenshots
screenshotscreenshotscreenshotscreenshotscreenshot
Additional Info
General
Unique ID                                : 333601435955075702183337040345595092185 (0xFAF94CAC02412679F3BBDB9620679CD9)
Complete name                            : [Techmod] Monster Strike the Anime S02E13 [0249BB71].mkv
Format                                   : Matroska
Format version                           : Version 4
File size                                : 259 MiB
Duration                                 : 17 min 23 s
Overall bit rate                         : 2 084 kb/s
Encoded date                             : UTC 2022-04-08 02:17:07
Writing application                      : mkvmerge v66.0.0 ('Josie') 64-bit
Writing library                          : libebml v1.4.2 + libmatroska v1.6.4

Video
ID                                       : 1
Format                                   : AVC
Format/Info                              : Advanced Video Codec
Format profile                           : High@L4
Format settings                          : CABAC / 3 Ref Frames
Format settings, CABAC                   : Yes
Format settings, Reference frames        : 3 frames
Codec ID                                 : V_MPEG4/ISO/AVC
Duration                                 : 17 min 23 s
Bit rate                                 : 1 956 kb/s
Width                                    : 1 920 pixels
Height                                   : 1 080 pixels
Display aspect ratio                     : 16:9
Frame rate mode                          : Constant
Frame rate                               : 23.976 (24000/1001) FPS
Color space                              : YUV
Chroma subsampling                       : 4:2:0
Bit depth                                : 8 bits
Scan type                                : Progressive
Bits/(Pixel*Frame)                       : 0.039
Stream size                              : 243 MiB (94%)
Language                                 : Japanese
Default                                  : Yes
Forced                                   : No
Color range                              : Limited
Color primaries                          : BT.709
Transfer characteristics                 : BT.709
Matrix coefficients                      : BT.709

Audio
ID                                       : 2
Format                                   : AAC LC
Format/Info                              : Advanced Audio Codec Low Complexity
Codec ID                                 : A_AAC-2
Duration                                 : 17 min 23 s
Bit rate                                 : 126 kb/s
Channel(s)                               : 2 channels
Channel layout                           : L R
Sampling rate                            : 44.1 kHz
Frame rate                               : 43.066 FPS (1024 SPF)
Compression mode                         : Lossy
Stream size                              : 15.6 MiB (6%)
Language                                 : Japanese
Default                                  : Yes
Forced                                   : No

Other Files in this Torrent
[Techmod] Monster Strike the Anime S02E13 [0249BB71].mkv
beta
Anime DDL+NZB mirror
Current Time: 16/08/2022 01:43



About/FAQs

Discord