[Techmod] Monster Strike the Anime S02E12 [472E7592].mkv


File Size154.1 MB (161,546,167 bytes)
DownloadAnonFiles | ClickNUpload | DownloadGG | KrakenFiles | MultiUp
  • BdUpload
  • DownAce
  • Fichier
  • FileCloud
  • Filerio
  • FilesCdn
  • IndiShare
  • Kbagi
  • Turbobit
  • UpToBox
  • Uppit
| ZippyShare
HashesCRC32: 472E7592, MD5: 7F631C85A2A3C9F1FE7BBF86D57A6D74, SHA1: B1312447C904C4AC9945113C0C699C962D4090D5, SHA256: 5BA723A245F73D6C359F02F5F9731EFD786A1D4C28C78CFF992BBF957FF1AE8E, ED2K: 2225E33ACC252413FD37D08FB5FD7A09
Screenshots
screenshotscreenshotscreenshotscreenshotscreenshot
Additional Info
General
Unique ID                                : 282257342061805609617312092104769694181 (0xD458C965D391D3DC8D4BEA2CB9A469E5)
Complete name                            : [Techmod] Monster Strike the Anime S02E12 [472E7592].mkv
Format                                   : Matroska
Format version                           : Version 4
File size                                : 154 MiB
Duration                                 : 11 min 33 s
Overall bit rate                         : 1 863 kb/s
Encoded date                             : UTC 2022-04-08 02:17:03
Writing application                      : mkvmerge v66.0.0 ('Josie') 64-bit
Writing library                          : libebml v1.4.2 + libmatroska v1.6.4

Video
ID                                       : 1
Format                                   : AVC
Format/Info                              : Advanced Video Codec
Format profile                           : High@L4
Format settings                          : CABAC / 3 Ref Frames
Format settings, CABAC                   : Yes
Format settings, Reference frames        : 3 frames
Codec ID                                 : V_MPEG4/ISO/AVC
Duration                                 : 11 min 33 s
Bit rate                                 : 1 735 kb/s
Width                                    : 1 920 pixels
Height                                   : 1 080 pixels
Display aspect ratio                     : 16:9
Frame rate mode                          : Constant
Frame rate                               : 23.976 (24000/1001) FPS
Color space                              : YUV
Chroma subsampling                       : 4:2:0
Bit depth                                : 8 bits
Scan type                                : Progressive
Bits/(Pixel*Frame)                       : 0.035
Stream size                              : 143 MiB (93%)
Language                                 : Japanese
Default                                  : Yes
Forced                                   : No
Color range                              : Limited
Color primaries                          : BT.709
Transfer characteristics                 : BT.709
Matrix coefficients                      : BT.709

Audio
ID                                       : 2
Format                                   : AAC LC
Format/Info                              : Advanced Audio Codec Low Complexity
Codec ID                                 : A_AAC-2
Duration                                 : 11 min 33 s
Bit rate                                 : 126 kb/s
Channel(s)                               : 2 channels
Channel layout                           : L R
Sampling rate                            : 44.1 kHz
Frame rate                               : 43.066 FPS (1024 SPF)
Compression mode                         : Lossy
Stream size                              : 10.4 MiB (7%)
Language                                 : Japanese
Default                                  : Yes
Forced                                   : No

Other Files in this Torrent
[Techmod] Monster Strike the Anime S02E12 [472E7592].mkv
beta
Anime DDL+NZB mirror
Current Time: 06/12/2022 23:42



About/FAQs

Discord