[Techmod] Monster Strike - The Fading Cosmos 01 [3C11A6C3].mkv


File Size276.9 MB (290,335,272 bytes)
DownloadAnonFiles | ClickNUpload | DownloadGG | KrakenFiles | MultiUp
  • BdUpload
  • DownAce
  • Fichier
  • FileCloud
  • Filerio
  • FilesCdn
  • IndiShare
  • Kbagi
  • Turbobit
  • UpToBox
  • Uppit
| ZippyShare
HashesCRC32: 3C11A6C3, MD5: 1AA25455A6A2E981E78E33E999F144EA, SHA1: C07B2C68AB0EB9987385B4B57D9E1AA3FBBEF65F, SHA256: 39BC1319DCEA6B90CE065941D4EC8A00AA11FB1A21B56BFDDAAF540525112EC7, ED2K: 344E39CAB98E0E2CAAD33D44FB545320
Screenshots
screenshotscreenshotscreenshotscreenshotscreenshot
Additional Info
General
Unique ID                                : 82970802954064581278382691885838347416 (0x3E6B986B9AA7B2CEE1EBBEA97189AC98)
Complete name                            : [Techmod] Monster Strike - The Fading Cosmos 01 [3C11A6C3].mkv
Format                                   : Matroska
Format version                           : Version 4
File size                                : 277 MiB
Duration                                 : 24 min 3 s
Overall bit rate                         : 1 609 kb/s
Encoded date                             : UTC 2022-04-08 02:28:41
Writing application                      : mkvmerge v66.0.0 ('Josie') 64-bit
Writing library                          : libebml v1.4.2 + libmatroska v1.6.4

Video
ID                                       : 1
Format                                   : AVC
Format/Info                              : Advanced Video Codec
Format profile                           : High@L4
Format settings                          : CABAC / 3 Ref Frames
Format settings, CABAC                   : Yes
Format settings, Reference frames        : 3 frames
Codec ID                                 : V_MPEG4/ISO/AVC
Duration                                 : 24 min 3 s
Bit rate                                 : 1 479 kb/s
Width                                    : 1 920 pixels
Height                                   : 1 080 pixels
Display aspect ratio                     : 16:9
Frame rate mode                          : Constant
Frame rate                               : 23.976 (24000/1001) FPS
Color space                              : YUV
Chroma subsampling                       : 4:2:0
Bit depth                                : 8 bits
Scan type                                : Progressive
Bits/(Pixel*Frame)                       : 0.030
Stream size                              : 254 MiB (92%)
Writing library                          : x264 core 155 r2901 7d0ff22
Language                                 : Japanese
Default                                  : Yes
Forced                                   : No
Color range                              : Limited
Color primaries                          : BT.709
Transfer characteristics                 : BT.709
Matrix coefficients                      : BT.709

Audio
ID                                       : 2
Format                                   : AAC LC
Format/Info                              : Advanced Audio Codec Low Complexity
Codec ID                                 : A_AAC-2
Duration                                 : 24 min 3 s
Bit rate                                 : 128 kb/s
Channel(s)                               : 2 channels
Channel layout                           : L R
Sampling rate                            : 44.1 kHz
Frame rate                               : 43.066 FPS (1024 SPF)
Compression mode                         : Lossy
Stream size                              : 22.0 MiB (8%)
Language                                 : Japanese
Default                                  : Yes
Forced                                   : No

Other Files in this Torrent
[Techmod] Monster Strike - The Fading Cosmos 01 [3C11A6C3].mkv
beta
Anime DDL+NZB mirror
Current Time: 16/08/2022 01:12



About/FAQs

Discord