[Techmod] Monster Strike the Anime S02E10 [3E678113].mkv


File Size193.8 MB (203,257,414 bytes)
DownloadAnonFiles | ClickNUpload | DownloadGG | KrakenFiles | MultiUp
  • BdUpload
  • DownAce
  • Fichier
  • FileCloud
  • Filerio
  • FilesCdn
  • IndiShare
  • Kbagi
  • Turbobit
  • UpToBox
  • Uppit
| ZippyShare
HashesCRC32: 3E678113, MD5: D7F2788550909BA6EBE4C233667B9DD0, SHA1: B43DE9066ADD7AAA7AE70C2F4A5E8C0AADC0465B, SHA256: F09064ADBBC23864867ED3F8CD847DD2C0B3007F0137433EF8497D50EA6B2BA6, ED2K: CD97551C1A0700BC0DE0EE03C3311276
Screenshots
screenshotscreenshotscreenshotscreenshotscreenshot
Additional Info
General
Unique ID                                : 13344196399926089878735842054857108826 (0xA09FFAD9FB6C50A5236F578B7252D5A)
Complete name                            : [Techmod] Monster Strike the Anime S02E10 [3E678113].mkv
Format                                   : Matroska
Format version                           : Version 4
File size                                : 194 MiB
Duration                                 : 10 min 59 s
Overall bit rate                         : 2 465 kb/s
Encoded date                             : UTC 2022-04-08 02:16:55
Writing application                      : mkvmerge v66.0.0 ('Josie') 64-bit
Writing library                          : libebml v1.4.2 + libmatroska v1.6.4

Video
ID                                       : 1
Format                                   : AVC
Format/Info                              : Advanced Video Codec
Format profile                           : High@L4
Format settings                          : CABAC / 3 Ref Frames
Format settings, CABAC                   : Yes
Format settings, Reference frames        : 3 frames
Codec ID                                 : V_MPEG4/ISO/AVC
Duration                                 : 10 min 59 s
Bit rate                                 : 2 337 kb/s
Width                                    : 1 920 pixels
Height                                   : 1 080 pixels
Display aspect ratio                     : 16:9
Frame rate mode                          : Constant
Frame rate                               : 23.976 (24000/1001) FPS
Color space                              : YUV
Chroma subsampling                       : 4:2:0
Bit depth                                : 8 bits
Scan type                                : Progressive
Bits/(Pixel*Frame)                       : 0.047
Stream size                              : 184 MiB (95%)
Language                                 : Japanese
Default                                  : Yes
Forced                                   : No
Color range                              : Limited
Color primaries                          : BT.709
Transfer characteristics                 : BT.709
Matrix coefficients                      : BT.709

Audio
ID                                       : 2
Format                                   : AAC LC
Format/Info                              : Advanced Audio Codec Low Complexity
Codec ID                                 : A_AAC-2
Duration                                 : 10 min 59 s
Bit rate                                 : 126 kb/s
Channel(s)                               : 2 channels
Channel layout                           : L R
Sampling rate                            : 44.1 kHz
Frame rate                               : 43.066 FPS (1024 SPF)
Compression mode                         : Lossy
Stream size                              : 9.88 MiB (5%)
Language                                 : Japanese
Default                                  : Yes
Forced                                   : No

Other Files in this Torrent
[Techmod] Monster Strike the Anime S02E10 [3E678113].mkv
beta
Anime DDL+NZB mirror
Current Time: 09/08/2022 00:55



About/FAQs

Discord