[Techmod] Monster Strike the Anime S02E23 [EF459176].mkv


File Size210.0 MB (220,237,160 bytes)
DownloadAnonFiles | ClickNUpload | DownloadGG | KrakenFiles | MultiUp
  • BdUpload
  • DownAce
  • Fichier
  • FileCloud
  • Filerio
  • FilesCdn
  • IndiShare
  • Kbagi
  • Turbobit
  • UpToBox
  • Uppit
| ZippyShare
HashesCRC32: EF459176, MD5: 88F4973359C7B5F4702675135AC93A33, SHA1: 083086A15D075ABFDA0651D2E8A6A2D6B479B1D3, SHA256: 7FE268ED6D82B49BC904BC82E5A560D21BE7171AC2676A34DFC11F5B0C559F8D, ED2K: C9033A2823EC1F488E086A496BC3D239
Screenshots
screenshotscreenshotscreenshotscreenshotscreenshot
Additional Info
General
Unique ID                                : 267413830601494028733297682873267748674 (0xC92E07C7A16F68637B125AE075AB7F42)
Complete name                            : [Techmod] Monster Strike the Anime S02E23 [EF459176].mkv
Format                                   : Matroska
Format version                           : Version 4
File size                                : 210 MiB
Duration                                 : 14 min 30 s
Overall bit rate                         : 2 023 kb/s
Encoded date                             : UTC 2022-04-08 02:18:02
Writing application                      : mkvmerge v66.0.0 ('Josie') 64-bit
Writing library                          : libebml v1.4.2 + libmatroska v1.6.4

Video
ID                                       : 1
Format                                   : AVC
Format/Info                              : Advanced Video Codec
Format profile                           : High@L4
Format settings                          : CABAC / 3 Ref Frames
Format settings, CABAC                   : Yes
Format settings, Reference frames        : 3 frames
Codec ID                                 : V_MPEG4/ISO/AVC
Duration                                 : 14 min 30 s
Bit rate                                 : 1 895 kb/s
Width                                    : 1 920 pixels
Height                                   : 1 080 pixels
Display aspect ratio                     : 16:9
Frame rate mode                          : Constant
Frame rate                               : 23.976 (24000/1001) FPS
Color space                              : YUV
Chroma subsampling                       : 4:2:0
Bit depth                                : 8 bits
Scan type                                : Progressive
Bits/(Pixel*Frame)                       : 0.038
Stream size                              : 197 MiB (94%)
Language                                 : Japanese
Default                                  : Yes
Forced                                   : No
Color range                              : Limited
Color primaries                          : BT.709
Transfer characteristics                 : BT.709
Matrix coefficients                      : BT.709

Audio
ID                                       : 2
Format                                   : AAC LC
Format/Info                              : Advanced Audio Codec Low Complexity
Codec ID                                 : A_AAC-2
Duration                                 : 14 min 30 s
Bit rate                                 : 126 kb/s
Channel(s)                               : 2 channels
Channel layout                           : L R
Sampling rate                            : 44.1 kHz
Frame rate                               : 43.066 FPS (1024 SPF)
Compression mode                         : Lossy
Stream size                              : 13.0 MiB (6%)
Language                                 : Japanese
Default                                  : Yes
Forced                                   : No

Other Files in this Torrent
[Techmod] Monster Strike the Anime S02E23 [EF459176].mkv
beta
Anime DDL+NZB mirror
Current Time: 16/08/2022 00:57



About/FAQs

Discord