Monster Strike the Animation - A Rhapsody Called Lucy -The Very First Song [249B7E3C].mkv


File Size235.0 MB (246,386,863 bytes)
DownloadAnonFiles | ClickNUpload | DownloadGG | KrakenFiles | MultiUp
  • BdUpload
  • DownAce
  • Fichier
  • FileCloud
  • Filerio
  • FilesCdn
  • IndiShare
  • Kbagi
  • Turbobit
  • UpToBox
  • Uppit
| ZippyShare
HashesCRC32: 249B7E3C, MD5: 9F56CEF5315D0147DFCC3797A2321C66, SHA1: 855C1F6B5E903C1A87EF6BEFA5E094B89A6D2E5C, SHA256: D23EFFB08FF89EFA3B070BF2A30DC846410EEDCEEC0E2B61698ED923A2DEDC55, ED2K: 830DEDA595C3220B6AFBA3DFFDAFB711
Screenshots
screenshotscreenshotscreenshotscreenshotscreenshot
Additional Info
General
Unique ID                                : 19530947586735752536395021988754601367 (0xEB1860FE3B9284B2FE3AFE7648FB597)
Complete name                            : Monster Strike the Animation - A Rhapsody Called Lucy -The Very First Song [249B7E3C].mkv
Format                                   : Matroska
Format version                           : Version 4
File size                                : 235 MiB
Duration                                 : 21 min 14 s
Overall bit rate                         : 1 547 kb/s
Encoded date                             : UTC 2022-05-13 03:11:47
Writing application                      : mkvmerge v67.0.0 ('Under Stars') 64-bit
Writing library                          : libebml v1.4.2 + libmatroska v1.6.4

Video
ID                                       : 1
Format                                   : AVC
Format/Info                              : Advanced Video Codec
Format profile                           : High@L4
Format settings                          : CABAC / 3 Ref Frames
Format settings, CABAC                   : Yes
Format settings, Reference frames        : 3 frames
Codec ID                                 : V_MPEG4/ISO/AVC
Duration                                 : 21 min 14 s
Bit rate                                 : 1 419 kb/s
Width                                    : 1 920 pixels
Height                                   : 1 080 pixels
Display aspect ratio                     : 16:9
Frame rate mode                          : Constant
Frame rate                               : 23.976 (24000/1001) FPS
Color space                              : YUV
Chroma subsampling                       : 4:2:0
Bit depth                                : 8 bits
Scan type                                : Progressive
Bits/(Pixel*Frame)                       : 0.029
Stream size                              : 216 MiB (92%)
Language                                 : Japanese
Default                                  : Yes
Forced                                   : No
Color range                              : Limited
Color primaries                          : BT.709
Transfer characteristics                 : BT.709
Matrix coefficients                      : BT.709

Audio
ID                                       : 2
Format                                   : AAC LC
Format/Info                              : Advanced Audio Codec Low Complexity
Codec ID                                 : A_AAC-2
Duration                                 : 21 min 14 s
Bit rate                                 : 126 kb/s
Channel(s)                               : 2 channels
Channel layout                           : L R
Sampling rate                            : 44.1 kHz
Frame rate                               : 43.066 FPS (1024 SPF)
Compression mode                         : Lossy
Stream size                              : 19.1 MiB (8%)
Language                                 : Japanese
Default                                  : Yes
Forced                                   : No

Other Files in this Torrent
Monster Strike the Animation - A Rhapsody Called Lucy -The Very First Song [249B7E3C].mkv
beta
Anime DDL+NZB mirror
Current Time: 07/12/2022 04:27



About/FAQs

Discord