[Techmod] Monster Strike the Anime S02E02 [32C263B7].mkv


File Size144.1 MB (151,137,785 bytes)
DownloadAnonFiles | ClickNUpload | DownloadGG | KrakenFiles | MultiUp
  • BdUpload
  • DownAce
  • Fichier
  • FileCloud
  • Filerio
  • FilesCdn
  • IndiShare
  • Kbagi
  • Turbobit
  • UpToBox
  • Uppit
| ZippyShare
HashesCRC32: 32C263B7, MD5: 38B90A78D3A8DF9CCD8558743B070A1F, SHA1: 9BD3F9628DC393B250FF4D5D0ACD42752EDF0164, SHA256: 37A7FBAB2B6D2DF92E982DA4FE06637BD211B379A1D2E40EA756920F45745BBA, ED2K: A53D2C38E22957B766D774B8A98CA7F3
Screenshots
screenshotscreenshotscreenshotscreenshotscreenshot
Additional Info
General
Unique ID                                : 177041281487202788038563853450110745910 (0x8530E919352D66900364959E7692BD36)
Complete name                            : [Techmod] Monster Strike the Anime S02E02 [32C263B7].mkv
Format                                   : Matroska
Format version                           : Version 4
File size                                : 144 MiB
Duration                                 : 9 min 52 s
Overall bit rate                         : 2 040 kb/s
Encoded date                             : UTC 2022-04-08 02:18:17
Writing application                      : mkvmerge v66.0.0 ('Josie') 64-bit
Writing library                          : libebml v1.4.2 + libmatroska v1.6.4

Video
ID                                       : 1
Format                                   : AVC
Format/Info                              : Advanced Video Codec
Format profile                           : High@L4
Format settings                          : CABAC / 3 Ref Frames
Format settings, CABAC                   : Yes
Format settings, Reference frames        : 3 frames
Codec ID                                 : V_MPEG4/ISO/AVC
Duration                                 : 9 min 52 s
Bit rate                                 : 1 912 kb/s
Width                                    : 1 920 pixels
Height                                   : 1 080 pixels
Display aspect ratio                     : 16:9
Frame rate mode                          : Constant
Frame rate                               : 23.976 (24000/1001) FPS
Color space                              : YUV
Chroma subsampling                       : 4:2:0
Bit depth                                : 8 bits
Scan type                                : Progressive
Bits/(Pixel*Frame)                       : 0.038
Stream size                              : 135 MiB (94%)
Language                                 : Japanese
Default                                  : Yes
Forced                                   : No
Color range                              : Limited
Color primaries                          : BT.709
Transfer characteristics                 : BT.709
Matrix coefficients                      : BT.709

Audio
ID                                       : 2
Format                                   : AAC LC
Format/Info                              : Advanced Audio Codec Low Complexity
Codec ID                                 : A_AAC-2
Duration                                 : 9 min 52 s
Bit rate                                 : 126 kb/s
Channel(s)                               : 2 channels
Channel layout                           : L R
Sampling rate                            : 44.1 kHz
Frame rate                               : 43.066 FPS (1024 SPF)
Compression mode                         : Lossy
Stream size                              : 8.87 MiB (6%)
Language                                 : Japanese
Default                                  : Yes
Forced                                   : No

Other Files in this Torrent
[Techmod] Monster Strike the Anime S02E02 [32C263B7].mkv
beta
Anime DDL+NZB mirror
Current Time: 14/08/2022 18:43



About/FAQs

Discord