[Techmod] Monster Strike - The Fading Cosmos 06 [4CA3A31F].mkv


File Size143.6 MB (150,598,619 bytes)
DownloadAnonFiles | ClickNUpload | DownloadGG | KrakenFiles | MultiUp
  • BdUpload
  • DownAce
  • Fichier
  • FileCloud
  • Filerio
  • FilesCdn
  • IndiShare
  • Kbagi
  • Turbobit
  • UpToBox
  • Uppit
| ZippyShare
HashesCRC32: 4CA3A31F, MD5: D93BD546BED7B93F8FCBBD58BB44A003, SHA1: 756B68EFCBD46AE3AD34ED16A63588988877270A, SHA256: 3A17672F1AE4C31DAF912954F2F5C823EA3391F8BAA39BF216CC37D9701F1761, ED2K: 230ACEEECA47DC6827CBA94E74777260
Screenshots
screenshotscreenshotscreenshotscreenshotscreenshot
Additional Info
General
Unique ID                                : 261398474688735562749305950546827097329 (0xC4A783D5DC8F620A87C136F1784B34F1)
Complete name                            : [Techmod] Monster Strike - The Fading Cosmos 06 [4CA3A31F].mkv
Format                                   : Matroska
Format version                           : Version 4
File size                                : 144 MiB
Duration                                 : 9 min 16 s
Overall bit rate                         : 2 165 kb/s
Encoded date                             : UTC 2022-04-08 02:28:12
Writing application                      : mkvmerge v66.0.0 ('Josie') 64-bit
Writing library                          : libebml v1.4.2 + libmatroska v1.6.4

Video
ID                                       : 1
Format                                   : AVC
Format/Info                              : Advanced Video Codec
Format profile                           : High@L4
Format settings                          : CABAC / 3 Ref Frames
Format settings, CABAC                   : Yes
Format settings, Reference frames        : 3 frames
Codec ID                                 : V_MPEG4/ISO/AVC
Duration                                 : 9 min 16 s
Bit rate                                 : 2 037 kb/s
Width                                    : 1 920 pixels
Height                                   : 1 080 pixels
Display aspect ratio                     : 16:9
Frame rate mode                          : Constant
Frame rate                               : 23.976 (24000/1001) FPS
Color space                              : YUV
Chroma subsampling                       : 4:2:0
Bit depth                                : 8 bits
Scan type                                : Progressive
Bits/(Pixel*Frame)                       : 0.041
Stream size                              : 135 MiB (94%)
Language                                 : Japanese
Default                                  : Yes
Forced                                   : No
Color range                              : Limited
Color primaries                          : BT.709
Transfer characteristics                 : BT.709
Matrix coefficients                      : BT.709

Audio
ID                                       : 2
Format                                   : AAC LC
Format/Info                              : Advanced Audio Codec Low Complexity
Codec ID                                 : A_AAC-2
Duration                                 : 9 min 16 s
Bit rate                                 : 126 kb/s
Channel(s)                               : 2 channels
Channel layout                           : L R
Sampling rate                            : 44.1 kHz
Frame rate                               : 43.066 FPS (1024 SPF)
Compression mode                         : Lossy
Stream size                              : 8.33 MiB (6%)
Language                                 : Japanese
Default                                  : Yes
Forced                                   : No

Other Files in this Torrent
[Techmod] Monster Strike - The Fading Cosmos 06 [4CA3A31F].mkv
beta
Anime DDL+NZB mirror
Current Time: 16/08/2022 01:39



About/FAQs

Discord