[Techmod] Monster Strike the Anime S02E05 [3A991759].mkv


File Size170.7 MB (178,990,909 bytes)
DownloadAnonFiles | ClickNUpload | DownloadGG | KrakenFiles | MultiUp
  • BdUpload
  • DownAce
  • Fichier
  • FileCloud
  • Filerio
  • FilesCdn
  • IndiShare
  • Kbagi
  • Turbobit
  • UpToBox
  • Uppit
| ZippyShare
HashesCRC32: 3A991759, MD5: 1EC25A77B7B2AA0AC7A308984EE40042, SHA1: EB73C39410D7D99F34DE270BCD42D631711C9978, SHA256: 12D55149D7DD13CAFF77B2D89454FF503BC14480D2B01401BC1B981666AC170A, ED2K: C5F071612A567572AE148B265CC2B50A
Screenshots
screenshotscreenshotscreenshotscreenshotscreenshot
Additional Info
General
Unique ID                                : 157501816731451771571797694996439445768 (0x767DBF1B8818FAC3EFDF1F9E68CD3108)
Complete name                            : [Techmod] Monster Strike the Anime S02E05 [3A991759].mkv
Format                                   : Matroska
Format version                           : Version 4
File size                                : 171 MiB
Duration                                 : 9 min 57 s
Overall bit rate                         : 2 396 kb/s
Encoded date                             : UTC 2022-04-08 02:18:29
Writing application                      : mkvmerge v66.0.0 ('Josie') 64-bit
Writing library                          : libebml v1.4.2 + libmatroska v1.6.4

Video
ID                                       : 1
Format                                   : AVC
Format/Info                              : Advanced Video Codec
Format profile                           : High@L4
Format settings                          : CABAC / 3 Ref Frames
Format settings, CABAC                   : Yes
Format settings, Reference frames        : 3 frames
Codec ID                                 : V_MPEG4/ISO/AVC
Duration                                 : 9 min 57 s
Bit rate                                 : 2 268 kb/s
Width                                    : 1 920 pixels
Height                                   : 1 080 pixels
Display aspect ratio                     : 16:9
Frame rate mode                          : Constant
Frame rate                               : 23.976 (24000/1001) FPS
Color space                              : YUV
Chroma subsampling                       : 4:2:0
Bit depth                                : 8 bits
Scan type                                : Progressive
Bits/(Pixel*Frame)                       : 0.046
Stream size                              : 162 MiB (95%)
Language                                 : Japanese
Default                                  : Yes
Forced                                   : No
Color range                              : Limited
Color primaries                          : BT.709
Transfer characteristics                 : BT.709
Matrix coefficients                      : BT.709

Audio
ID                                       : 2
Format                                   : AAC LC
Format/Info                              : Advanced Audio Codec Low Complexity
Codec ID                                 : A_AAC-2
Duration                                 : 9 min 57 s
Bit rate                                 : 126 kb/s
Channel(s)                               : 2 channels
Channel layout                           : L R
Sampling rate                            : 44.1 kHz
Frame rate                               : 43.066 FPS (1024 SPF)
Compression mode                         : Lossy
Stream size                              : 8.95 MiB (5%)
Language                                 : Japanese
Default                                  : Yes
Forced                                   : No

Other Files in this Torrent
[Techmod] Monster Strike the Anime S02E05 [3A991759].mkv
beta
Anime DDL+NZB mirror
Current Time: 27/09/2022 02:38



About/FAQs

Discord