[Techmod] Monster Strike - The Fading Cosmos 03 [3F10CF82].mkv


File Size66.65 MB (69,892,732 bytes)
DownloadAnonFiles | ClickNUpload | DownloadGG | KrakenFiles | MultiUp
  • BdUpload
  • DownAce
  • Fichier
  • FileCloud
  • Filerio
  • FilesCdn
  • IndiShare
  • Kbagi
  • Turbobit
  • UpToBox
  • Uppit
| ZippyShare
HashesCRC32: 3F10CF82, MD5: 3DC6610121C7692951576FF4F7B5A1C6, SHA1: 1E77B098D6EAD2B33DBDE697AD016A79CB2C4AAC, SHA256: 1C3FC71395D4C64AE88EE7A7A344A2B84E4DBBF77C801A5ED5A28468C4D51A43, ED2K: F698DBFD40EA33CB704ED2BBF889003B
Screenshots
screenshotscreenshotscreenshotscreenshotscreenshot
Additional Info
General
Unique ID                                : 90547938296405943250471568304026934745 (0x441EE609205AD241F34E88D8BCE3DDD9)
Complete name                            : [Techmod] Monster Strike - The Fading Cosmos 03 [3F10CF82].mkv
Format                                   : Matroska
Format version                           : Version 4
File size                                : 66.7 MiB
Duration                                 : 8 min 42 s
Overall bit rate                         : 1 070 kb/s
Encoded date                             : UTC 2022-04-08 02:28:52
Writing application                      : mkvmerge v66.0.0 ('Josie') 64-bit
Writing library                          : libebml v1.4.2 + libmatroska v1.6.4

Video
ID                                       : 1
Format                                   : AVC
Format/Info                              : Advanced Video Codec
Format profile                           : High@L4
Format settings                          : CABAC / 3 Ref Frames
Format settings, CABAC                   : Yes
Format settings, Reference frames        : 3 frames
Codec ID                                 : V_MPEG4/ISO/AVC
Duration                                 : 8 min 42 s
Bit rate                                 : 942 kb/s
Width                                    : 1 920 pixels
Height                                   : 1 080 pixels
Display aspect ratio                     : 16:9
Frame rate mode                          : Constant
Frame rate                               : 23.976 (24000/1001) FPS
Color space                              : YUV
Chroma subsampling                       : 4:2:0
Bit depth                                : 8 bits
Scan type                                : Progressive
Bits/(Pixel*Frame)                       : 0.019
Stream size                              : 58.7 MiB (88%)
Language                                 : Japanese
Default                                  : Yes
Forced                                   : No
Color range                              : Limited
Color primaries                          : BT.709
Transfer characteristics                 : BT.709
Matrix coefficients                      : BT.709

Audio
ID                                       : 2
Format                                   : AAC LC
Format/Info                              : Advanced Audio Codec Low Complexity
Codec ID                                 : A_AAC-2
Duration                                 : 8 min 42 s
Bit rate                                 : 126 kb/s
Channel(s)                               : 2 channels
Channel layout                           : L R
Sampling rate                            : 44.1 kHz
Frame rate                               : 43.066 FPS (1024 SPF)
Compression mode                         : Lossy
Stream size                              : 7.82 MiB (12%)
Language                                 : Japanese
Default                                  : Yes
Forced                                   : No

Other Files in this Torrent
[Techmod] Monster Strike - The Fading Cosmos 03 [3F10CF82].mkv
beta
Anime DDL+NZB mirror
Current Time: 06/12/2022 22:59



About/FAQs

Discord