[Techmod] Monster Strike the Anime S02E18 [03ACF0CD].mkv


File Size210.5 MB (220,776,770 bytes)
DownloadAnonFiles | ClickNUpload | DownloadGG | KrakenFiles | MultiUp
  • BdUpload
  • DownAce
  • Fichier
  • FileCloud
  • Filerio
  • FilesCdn
  • IndiShare
  • Kbagi
  • Turbobit
  • UpToBox
  • Uppit
| ZippyShare
HashesCRC32: 03ACF0CD, MD5: 8B1EE24FDF478DBFB0AC134B0B36D275, SHA1: 490A6255BFDD955D3440C6718FCE0DB024C620E8, SHA256: 35DA946E76BF741B486DF10AD54B0012FE4B41346C9A228249FD19F45AD67075, ED2K: 3B6DC96275D330F30B77B7F080D8A796
Screenshots
screenshotscreenshotscreenshotscreenshotscreenshot
Additional Info
General
Unique ID                                : 70425185844653753193661795881337754915 (0x34FB65BDB13D8159B1E61F80D8F81523)
Complete name                            : [Techmod] Monster Strike the Anime S02E18 [03ACF0CD].mkv
Format                                   : Matroska
Format version                           : Version 4
File size                                : 211 MiB
Duration                                 : 9 min 49 s
Overall bit rate                         : 2 995 kb/s
Encoded date                             : UTC 2022-04-08 02:17:34
Writing application                      : mkvmerge v66.0.0 ('Josie') 64-bit
Writing library                          : libebml v1.4.2 + libmatroska v1.6.4

Video
ID                                       : 1
Format                                   : AVC
Format/Info                              : Advanced Video Codec
Format profile                           : High@L4
Format settings                          : CABAC / 2 Ref Frames
Format settings, CABAC                   : Yes
Format settings, Reference frames        : 2 frames
Codec ID                                 : V_MPEG4/ISO/AVC
Duration                                 : 9 min 49 s
Bit rate                                 : 2 868 kb/s
Width                                    : 1 920 pixels
Height                                   : 1 080 pixels
Display aspect ratio                     : 16:9
Frame rate mode                          : Constant
Frame rate                               : 23.976 (24000/1001) FPS
Color space                              : YUV
Chroma subsampling                       : 4:2:0
Bit depth                                : 8 bits
Scan type                                : Progressive
Bits/(Pixel*Frame)                       : 0.058
Stream size                              : 202 MiB (96%)
Language                                 : Japanese
Default                                  : Yes
Forced                                   : No
Color range                              : Limited
Color primaries                          : BT.709
Transfer characteristics                 : BT.709
Matrix coefficients                      : BT.709

Audio
ID                                       : 2
Format                                   : AAC LC
Format/Info                              : Advanced Audio Codec Low Complexity
Codec ID                                 : A_AAC-2
Duration                                 : 9 min 49 s
Bit rate                                 : 126 kb/s
Channel(s)                               : 2 channels
Channel layout                           : L R
Sampling rate                            : 44.1 kHz
Frame rate                               : 43.066 FPS (1024 SPF)
Compression mode                         : Lossy
Stream size                              : 8.83 MiB (4%)
Language                                 : Japanese
Default                                  : Yes
Forced                                   : No

Other Files in this Torrent
[Techmod] Monster Strike the Anime S02E18 [03ACF0CD].mkv
beta
Anime DDL+NZB mirror
Current Time: 28/06/2022 15:27



About/FAQs

Discord