[Techmod] Monster Strike the Anime S02E09 [496E0697].mkv


File Size121.9 MB (127,792,086 bytes)
DownloadAnonFiles | ClickNUpload | DownloadGG | KrakenFiles | MultiUp
  • BdUpload
  • DownAce
  • Fichier
  • FileCloud
  • Filerio
  • FilesCdn
  • IndiShare
  • Kbagi
  • Turbobit
  • UpToBox
  • Uppit
| ZippyShare
HashesCRC32: 496E0697, MD5: E0670C5587A42BB99B6730B636F26BE5, SHA1: 04E1AFB02F420D7B5944526A61BA5508BB1CA96D, SHA256: 6AD224914C88F6008B7AA88227B2BEF3A72E72FED708857F964EC3BE4F05F413, ED2K: 1B0E4D4BBDEF15FC1C69136C53600E30
Screenshots
screenshotscreenshotscreenshotscreenshotscreenshot
Additional Info
General
Unique ID                                : 150801985391467930433283205493817672667 (0x717367EB47D72C7270949F1395D503DB)
Complete name                            : [Techmod] Monster Strike the Anime S02E09 [496E0697].mkv
Format                                   : Matroska
Format version                           : Version 4
File size                                : 122 MiB
Duration                                 : 9 min 3 s
Overall bit rate                         : 1 881 kb/s
Encoded date                             : UTC 2022-04-08 02:18:48
Writing application                      : mkvmerge v66.0.0 ('Josie') 64-bit
Writing library                          : libebml v1.4.2 + libmatroska v1.6.4

Video
ID                                       : 1
Format                                   : AVC
Format/Info                              : Advanced Video Codec
Format profile                           : High@L4
Format settings                          : CABAC / 3 Ref Frames
Format settings, CABAC                   : Yes
Format settings, Reference frames        : 3 frames
Codec ID                                 : V_MPEG4/ISO/AVC
Duration                                 : 9 min 3 s
Bit rate                                 : 1 753 kb/s
Width                                    : 1 920 pixels
Height                                   : 1 080 pixels
Display aspect ratio                     : 16:9
Frame rate mode                          : Constant
Frame rate                               : 23.976 (24000/1001) FPS
Color space                              : YUV
Chroma subsampling                       : 4:2:0
Bit depth                                : 8 bits
Scan type                                : Progressive
Bits/(Pixel*Frame)                       : 0.035
Stream size                              : 114 MiB (93%)
Language                                 : Japanese
Default                                  : Yes
Forced                                   : No
Color range                              : Limited
Color primaries                          : BT.709
Transfer characteristics                 : BT.709
Matrix coefficients                      : BT.709

Audio
ID                                       : 2
Format                                   : AAC LC
Format/Info                              : Advanced Audio Codec Low Complexity
Codec ID                                 : A_AAC-2
Duration                                 : 9 min 3 s
Bit rate                                 : 126 kb/s
Channel(s)                               : 2 channels
Channel layout                           : L R
Sampling rate                            : 44.1 kHz
Frame rate                               : 43.066 FPS (1024 SPF)
Compression mode                         : Lossy
Stream size                              : 8.14 MiB (7%)
Language                                 : Japanese
Default                                  : Yes
Forced                                   : No

Other Files in this Torrent
[Techmod] Monster Strike the Anime S02E09 [496E0697].mkv
beta
Anime DDL+NZB mirror
Current Time: 16/08/2022 01:08



About/FAQs

Discord