[Techmod] Monster Strike - The Fading Cosmos 04 [6F743124].mkv


File Size84.30 MB (88,395,691 bytes)
DownloadAnonFiles | ClickNUpload | DownloadGG | KrakenFiles | MultiUp
  • BdUpload
  • DownAce
  • Fichier
  • FileCloud
  • Filerio
  • FilesCdn
  • IndiShare
  • Kbagi
  • Turbobit
  • UpToBox
  • Uppit
| ZippyShare
HashesCRC32: 6F743124, MD5: DD05706CA7914185CD637D0ED743E4DB, SHA1: A38C634AF080EA7F8B5FC2A9AA0AD8678567FEA8, SHA256: BFC48698429FA581323C7686C962AA470583B7FAA68E7247F6F35A561D13C0EE, ED2K: 86B1CB04D48B448064A8CAC29191807B
Screenshots
screenshotscreenshotscreenshotscreenshotscreenshot
Additional Info
General
Unique ID                                : 287407915931154489817216646132909434775 (0xD838C04BAA8973C60A2CC15D59CB6797)
Complete name                            : [Techmod] Monster Strike - The Fading Cosmos 04 [6F743124].mkv
Format                                   : Matroska
Format version                           : Version 4
File size                                : 84.3 MiB
Duration                                 : 10 min 33 s
Overall bit rate                         : 1 116 kb/s
Encoded date                             : UTC 2022-04-08 02:28:07
Writing application                      : mkvmerge v66.0.0 ('Josie') 64-bit
Writing library                          : libebml v1.4.2 + libmatroska v1.6.4

Video
ID                                       : 1
Format                                   : AVC
Format/Info                              : Advanced Video Codec
Format profile                           : High@L4
Format settings                          : CABAC / 3 Ref Frames
Format settings, CABAC                   : Yes
Format settings, Reference frames        : 3 frames
Codec ID                                 : V_MPEG4/ISO/AVC
Duration                                 : 10 min 33 s
Bit rate                                 : 986 kb/s
Width                                    : 1 920 pixels
Height                                   : 1 080 pixels
Display aspect ratio                     : 16:9
Frame rate mode                          : Constant
Frame rate                               : 23.976 (24000/1001) FPS
Color space                              : YUV
Chroma subsampling                       : 4:2:0
Bit depth                                : 8 bits
Scan type                                : Progressive
Bits/(Pixel*Frame)                       : 0.020
Stream size                              : 74.5 MiB (88%)
Writing library                          : x264 core 155 r2901 7d0ff22
Language                                 : Japanese
Default                                  : Yes
Forced                                   : No
Color range                              : Limited
Color primaries                          : BT.709
Transfer characteristics                 : BT.709
Matrix coefficients                      : BT.709

Audio
ID                                       : 2
Format                                   : AAC LC
Format/Info                              : Advanced Audio Codec Low Complexity
Codec ID                                 : A_AAC-2
Duration                                 : 10 min 33 s
Bit rate                                 : 128 kb/s
Channel(s)                               : 2 channels
Channel layout                           : L R
Sampling rate                            : 44.1 kHz
Frame rate                               : 43.066 FPS (1024 SPF)
Compression mode                         : Lossy
Stream size                              : 9.67 MiB (11%)
Language                                 : Japanese
Default                                  : Yes
Forced                                   : No

Other Files in this Torrent
[Techmod] Monster Strike - The Fading Cosmos 04 [6F743124].mkv
beta
Anime DDL+NZB mirror
Current Time: 28/06/2022 15:02



About/FAQs

Discord