[Techmod] Monster Strike - The Fading Cosmos 05 [5FF43C93].mkv


File Size119.2 MB (124,997,096 bytes)
DownloadAnonFiles | ClickNUpload | DownloadGG | KrakenFiles | MultiUp
  • BdUpload
  • DownAce
  • Fichier
  • FileCloud
  • Filerio
  • FilesCdn
  • IndiShare
  • Kbagi
  • Turbobit
  • UpToBox
  • Uppit
| ZippyShare
HashesCRC32: 5FF43C93, MD5: 207D16A9750E7B90A3BF789BB55E0F10, SHA1: 959EF310F7112BD9FE9F491FBA128ED5D230CCE8, SHA256: AADE5870CC2D3D65AAC838F608E75C0EAE315CE35A82B7BBE874A0040C33E334, ED2K: 2A6ECDACC92FCD7D571201F1A49CC76C
Screenshots
screenshotscreenshotscreenshotscreenshotscreenshot
Additional Info
General
Unique ID                                : 293864508471169247458601224082680350301 (0xDD143EE2A3682B16B83F26468CDA865D)
Complete name                            : [Techmod] Monster Strike - The Fading Cosmos 05 [5FF43C93].mkv
Format                                   : Matroska
Format version                           : Version 4
File size                                : 119 MiB
Duration                                 : 9 min 53 s
Overall bit rate                         : 1 684 kb/s
Encoded date                             : UTC 2022-04-08 02:28:09
Writing application                      : mkvmerge v66.0.0 ('Josie') 64-bit
Writing library                          : libebml v1.4.2 + libmatroska v1.6.4

Video
ID                                       : 1
Format                                   : AVC
Format/Info                              : Advanced Video Codec
Format profile                           : High@L4
Format settings                          : CABAC / 3 Ref Frames
Format settings, CABAC                   : Yes
Format settings, Reference frames        : 3 frames
Codec ID                                 : V_MPEG4/ISO/AVC
Duration                                 : 9 min 53 s
Bit rate                                 : 1 557 kb/s
Width                                    : 1 920 pixels
Height                                   : 1 080 pixels
Display aspect ratio                     : 16:9
Frame rate mode                          : Constant
Frame rate                               : 23.976 (24000/1001) FPS
Color space                              : YUV
Chroma subsampling                       : 4:2:0
Bit depth                                : 8 bits
Scan type                                : Progressive
Bits/(Pixel*Frame)                       : 0.031
Stream size                              : 110 MiB (92%)
Language                                 : Japanese
Default                                  : Yes
Forced                                   : No
Color range                              : Limited
Color primaries                          : BT.709
Transfer characteristics                 : BT.709
Matrix coefficients                      : BT.709

Audio
ID                                       : 2
Format                                   : AAC LC
Format/Info                              : Advanced Audio Codec Low Complexity
Codec ID                                 : A_AAC-2
Duration                                 : 9 min 53 s
Bit rate                                 : 126 kb/s
Channel(s)                               : 2 channels
Channel layout                           : L R
Sampling rate                            : 44.1 kHz
Frame rate                               : 43.066 FPS (1024 SPF)
Compression mode                         : Lossy
Stream size                              : 8.89 MiB (7%)
Language                                 : Japanese
Default                                  : Yes
Forced                                   : No

Other Files in this Torrent
[Techmod] Monster Strike - The Fading Cosmos 05 [5FF43C93].mkv
beta
Anime DDL+NZB mirror
Current Time: 25/06/2022 05:05



About/FAQs

Discord