[Techmod] Monster Strike the Anime S02E16 [FD08A54E].mkv


File Size218.5 MB (229,117,577 bytes)
DownloadAnonFiles | ClickNUpload | DownloadGG | KrakenFiles | MultiUp
  • BdUpload
  • DownAce
  • Fichier
  • FileCloud
  • Filerio
  • FilesCdn
  • IndiShare
  • Kbagi
  • Turbobit
  • UpToBox
  • Uppit
| ZippyShare
HashesCRC32: FD08A54E, MD5: D013BDC98F8404ABCA4714249553A77B, SHA1: 565F49EB2B358F0A7B5CE905E84C8603FFD7FB38, SHA256: 978CA55AD25304685BC22B5C5DDBCA68C375C36E6898874942181578559A2813, ED2K: F6EDEF80F82AD2856601D522853CBE44
Screenshots
screenshotscreenshotscreenshotscreenshotscreenshot
Additional Info
General
Unique ID                                : 294020397126174198612413907380229776015 (0xDD3244CA16193B3DF766D002F952228F)
Complete name                            : [Techmod] Monster Strike the Anime S02E16 [FD08A54E].mkv
Format                                   : Matroska
Format version                           : Version 4
File size                                : 219 MiB
Duration                                 : 13 min 52 s
Overall bit rate                         : 2 201 kb/s
Encoded date                             : UTC 2022-04-08 02:17:24
Writing application                      : mkvmerge v66.0.0 ('Josie') 64-bit
Writing library                          : libebml v1.4.2 + libmatroska v1.6.4

Video
ID                                       : 1
Format                                   : AVC
Format/Info                              : Advanced Video Codec
Format profile                           : High@L4
Format settings                          : CABAC / 3 Ref Frames
Format settings, CABAC                   : Yes
Format settings, Reference frames        : 3 frames
Codec ID                                 : V_MPEG4/ISO/AVC
Duration                                 : 13 min 52 s
Bit rate                                 : 2 073 kb/s
Width                                    : 1 920 pixels
Height                                   : 1 080 pixels
Display aspect ratio                     : 16:9
Frame rate mode                          : Constant
Frame rate                               : 23.976 (24000/1001) FPS
Color space                              : YUV
Chroma subsampling                       : 4:2:0
Bit depth                                : 8 bits
Scan type                                : Progressive
Bits/(Pixel*Frame)                       : 0.042
Stream size                              : 206 MiB (94%)
Language                                 : Japanese
Default                                  : Yes
Forced                                   : No
Color range                              : Limited
Color primaries                          : BT.709
Transfer characteristics                 : BT.709
Matrix coefficients                      : BT.709

Audio
ID                                       : 2
Format                                   : AAC LC
Format/Info                              : Advanced Audio Codec Low Complexity
Codec ID                                 : A_AAC-2
Duration                                 : 13 min 52 s
Bit rate                                 : 126 kb/s
Channel(s)                               : 2 channels
Channel layout                           : L R
Sampling rate                            : 44.1 kHz
Frame rate                               : 43.066 FPS (1024 SPF)
Compression mode                         : Lossy
Stream size                              : 12.5 MiB (6%)
Language                                 : Japanese
Default                                  : Yes
Forced                                   : No

Other Files in this Torrent
[Techmod] Monster Strike the Anime S02E16 [FD08A54E].mkv
beta
Anime DDL+NZB mirror
Current Time: 28/06/2022 15:35



About/FAQs

Discord