[Techmod] Monster Strike the Anime S02E22 [AA92200A].mkv


File Size203.0 MB (212,872,384 bytes)
DownloadAnonFiles | ClickNUpload | DownloadGG | KrakenFiles | MultiUp
  • BdUpload
  • DownAce
  • Fichier
  • FileCloud
  • Filerio
  • FilesCdn
  • IndiShare
  • Kbagi
  • Turbobit
  • UpToBox
  • Uppit
| ZippyShare
HashesCRC32: AA92200A, MD5: 8D6C6B70C9A6D74A7AA5233C3090D392, SHA1: 9FC4A8D169854211FAD907607C54C377BB5FE83D, SHA256: C3FDD74EA85450627CD7EE20B4662AA6EC4E68C080B4E046F31066CCF98B7F11, ED2K: 633F70C2AF0E24ACC790F16E43D27CC2
Screenshots
screenshotscreenshotscreenshotscreenshotscreenshot
Additional Info
General
Unique ID                                : 243813585633453257080948229069451477841 (0xB76CC9DDE345EEE83260D36F2D3AC351)
Complete name                            : [Techmod] Monster Strike the Anime S02E22 [AA92200A].mkv
Format                                   : Matroska
Format version                           : Version 4
File size                                : 203 MiB
Duration                                 : 12 min 32 s
Overall bit rate                         : 2 262 kb/s
Encoded date                             : UTC 2022-04-08 02:17:58
Writing application                      : mkvmerge v66.0.0 ('Josie') 64-bit
Writing library                          : libebml v1.4.2 + libmatroska v1.6.4

Video
ID                                       : 1
Format                                   : AVC
Format/Info                              : Advanced Video Codec
Format profile                           : High@L4
Format settings                          : CABAC / 3 Ref Frames
Format settings, CABAC                   : Yes
Format settings, Reference frames        : 3 frames
Codec ID                                 : V_MPEG4/ISO/AVC
Duration                                 : 12 min 32 s
Bit rate                                 : 2 134 kb/s
Width                                    : 1 920 pixels
Height                                   : 1 080 pixels
Display aspect ratio                     : 16:9
Frame rate mode                          : Constant
Frame rate                               : 23.976 (24000/1001) FPS
Color space                              : YUV
Chroma subsampling                       : 4:2:0
Bit depth                                : 8 bits
Scan type                                : Progressive
Bits/(Pixel*Frame)                       : 0.043
Stream size                              : 192 MiB (94%)
Language                                 : Japanese
Default                                  : Yes
Forced                                   : No
Color range                              : Limited
Color primaries                          : BT.709
Transfer characteristics                 : BT.709
Matrix coefficients                      : BT.709

Audio
ID                                       : 2
Format                                   : AAC LC
Format/Info                              : Advanced Audio Codec Low Complexity
Codec ID                                 : A_AAC-2
Duration                                 : 12 min 32 s
Bit rate                                 : 126 kb/s
Channel(s)                               : 2 channels
Channel layout                           : L R
Sampling rate                            : 44.1 kHz
Frame rate                               : 43.066 FPS (1024 SPF)
Compression mode                         : Lossy
Stream size                              : 11.3 MiB (6%)
Language                                 : Japanese
Default                                  : Yes
Forced                                   : No

Other Files in this Torrent
[Techmod] Monster Strike the Anime S02E22 [AA92200A].mkv
beta
Anime DDL+NZB mirror
Current Time: 06/12/2022 23:47



About/FAQs

Discord