[Techmod] Monster Strike the Anime S02E20 [4D867E98].mkv


File Size240.2 MB (251,902,663 bytes)
DownloadAnonFiles | ClickNUpload | DownloadGG | KrakenFiles | MultiUp
  • BdUpload
  • DownAce
  • Fichier
  • FileCloud
  • Filerio
  • FilesCdn
  • IndiShare
  • Kbagi
  • Turbobit
  • UpToBox
  • Uppit
| ZippyShare
HashesCRC32: 4D867E98, MD5: FB385C028BAEEC9F9B446678A67E7E4B, SHA1: 80E4DC1A4AD90F733491A2417DFA3C4B63753EAE, SHA256: AD61867536385B40B769497C0E08A1173BB21CEF1518EE4126DEF84C560CFEE0, ED2K: 7E08C62643305C2C525FCA27E432759B
Screenshots
screenshotscreenshotscreenshotscreenshotscreenshot
Additional Info
General
Unique ID                                : 301688555974251255427266161978266324800 (0xE2F71A35C54B87C5237FBEE9F7738F40)
Complete name                            : [Techmod] Monster Strike the Anime S02E20 [4D867E98].mkv
Format                                   : Matroska
Format version                           : Version 4
File size                                : 240 MiB
Duration                                 : 12 min 14 s
Overall bit rate                         : 2 743 kb/s
Encoded date                             : UTC 2022-04-08 02:17:46
Writing application                      : mkvmerge v66.0.0 ('Josie') 64-bit
Writing library                          : libebml v1.4.2 + libmatroska v1.6.4

Video
ID                                       : 1
Format                                   : AVC
Format/Info                              : Advanced Video Codec
Format profile                           : High@L4
Format settings                          : CABAC / 2 Ref Frames
Format settings, CABAC                   : Yes
Format settings, Reference frames        : 2 frames
Codec ID                                 : V_MPEG4/ISO/AVC
Duration                                 : 12 min 14 s
Bit rate                                 : 2 615 kb/s
Width                                    : 1 920 pixels
Height                                   : 1 080 pixels
Display aspect ratio                     : 16:9
Frame rate mode                          : Constant
Frame rate                               : 23.976 (24000/1001) FPS
Color space                              : YUV
Chroma subsampling                       : 4:2:0
Bit depth                                : 8 bits
Scan type                                : Progressive
Bits/(Pixel*Frame)                       : 0.053
Stream size                              : 229 MiB (95%)
Language                                 : Japanese
Default                                  : Yes
Forced                                   : No
Color range                              : Limited
Color primaries                          : BT.709
Transfer characteristics                 : BT.709
Matrix coefficients                      : BT.709

Audio
ID                                       : 2
Format                                   : AAC LC
Format/Info                              : Advanced Audio Codec Low Complexity
Codec ID                                 : A_AAC-2
Duration                                 : 12 min 14 s
Bit rate                                 : 126 kb/s
Channel(s)                               : 2 channels
Channel layout                           : L R
Sampling rate                            : 44.1 kHz
Frame rate                               : 43.066 FPS (1024 SPF)
Compression mode                         : Lossy
Stream size                              : 11.0 MiB (5%)
Language                                 : Japanese
Default                                  : Yes
Forced                                   : No

Other Files in this Torrent
[Techmod] Monster Strike the Anime S02E20 [4D867E98].mkv
beta
Anime DDL+NZB mirror
Current Time: 28/06/2022 14:30



About/FAQs

Discord