[Techmod] Monster Strike - The Fading Cosmos 12 [E4992870].mkv


File Size199.3 MB (208,932,204 bytes)
DownloadAnonFiles | ClickNUpload | DownloadGG | KrakenFiles | MultiUp
  • BdUpload
  • DownAce
  • Fichier
  • FileCloud
  • Filerio
  • FilesCdn
  • IndiShare
  • Kbagi
  • Turbobit
  • UpToBox
  • Uppit
| ZippyShare
HashesCRC32: E4992870, MD5: 5E75443B12CBEAF77256A54A59C10084, SHA1: C403606A29E2B5BAF34E4A5BA5A0A3217BD657BC, SHA256: 770DC56308F9C5C7C7470A5A8E4714FB8C172D467DC3479678595470FFE119B2, ED2K: CE051A8E894FCD09EB8D77B17CBA8301
Screenshots
screenshotscreenshotscreenshotscreenshotscreenshot
Additional Info
General
Unique ID                                : 101880374481097883209863509850890445060 (0x4CA57246FFA665657B82383055E42104)
Complete name                            : [Techmod] Monster Strike - The Fading Cosmos 12 [E4992870].mkv
Format                                   : Matroska
Format version                           : Version 4
File size                                : 199 MiB
Duration                                 : 11 min 43 s
Overall bit rate                         : 2 375 kb/s
Encoded date                             : UTC 2022-04-08 02:28:34
Writing application                      : mkvmerge v66.0.0 ('Josie') 64-bit
Writing library                          : libebml v1.4.2 + libmatroska v1.6.4

Video
ID                                       : 1
Format                                   : AVC
Format/Info                              : Advanced Video Codec
Format profile                           : High@L4
Format settings                          : CABAC / 3 Ref Frames
Format settings, CABAC                   : Yes
Format settings, Reference frames        : 3 frames
Codec ID                                 : V_MPEG4/ISO/AVC
Duration                                 : 11 min 43 s
Bit rate                                 : 2 247 kb/s
Width                                    : 1 920 pixels
Height                                   : 1 080 pixels
Display aspect ratio                     : 16:9
Frame rate mode                          : Constant
Frame rate                               : 23.976 (24000/1001) FPS
Color space                              : YUV
Chroma subsampling                       : 4:2:0
Bit depth                                : 8 bits
Scan type                                : Progressive
Bits/(Pixel*Frame)                       : 0.045
Stream size                              : 189 MiB (95%)
Language                                 : Japanese
Default                                  : Yes
Forced                                   : No
Color range                              : Limited
Color primaries                          : BT.709
Transfer characteristics                 : BT.709
Matrix coefficients                      : BT.709

Audio
ID                                       : 2
Format                                   : AAC LC
Format/Info                              : Advanced Audio Codec Low Complexity
Codec ID                                 : A_AAC-2
Duration                                 : 11 min 43 s
Bit rate                                 : 126 kb/s
Channel(s)                               : 2 channels
Channel layout                           : L R
Sampling rate                            : 44.1 kHz
Frame rate                               : 43.066 FPS (1024 SPF)
Compression mode                         : Lossy
Stream size                              : 10.5 MiB (5%)
Language                                 : Japanese
Default                                  : Yes
Forced                                   : No

Other Files in this Torrent
[Techmod] Monster Strike - The Fading Cosmos 12 [E4992870].mkv
beta
Anime DDL+NZB mirror
Current Time: 27/09/2022 02:34



About/FAQs

Discord