[Techmod] Monster Strike - The Fading Cosmos 10 [1DFFC2FF].mkv


File Size136.0 MB (142,576,792 bytes)
DownloadAnonFiles | ClickNUpload | DownloadGG | KrakenFiles | MultiUp
  • BdUpload
  • DownAce
  • Fichier
  • FileCloud
  • Filerio
  • FilesCdn
  • IndiShare
  • Kbagi
  • Turbobit
  • UpToBox
  • Uppit
| ZippyShare
HashesCRC32: 1DFFC2FF, MD5: 5AA5B85FAAB2923AD1376EBBE31353B8, SHA1: 4A106399D05F493ADCB952D8D5F5D6517D56C956, SHA256: 39C1493F6A31F31FA1AAC6861AB758CCFAB9B85564A4F48579A38A790493C9E7, ED2K: 476A2A7075E55B70C06CD12285C5C2E1
Screenshots
screenshotscreenshotscreenshotscreenshotscreenshot
Additional Info
General
Unique ID                                : 136866803959690376366800844675904238953 (0x66F7966DDC8FD6D6C31716357180F569)
Complete name                            : [Techmod] Monster Strike - The Fading Cosmos 10 [1DFFC2FF].mkv
Format                                   : Matroska
Format version                           : Version 4
File size                                : 136 MiB
Duration                                 : 9 min 11 s
Overall bit rate                         : 2 068 kb/s
Encoded date                             : UTC 2022-04-08 02:28:24
Writing application                      : mkvmerge v66.0.0 ('Josie') 64-bit
Writing library                          : libebml v1.4.2 + libmatroska v1.6.4

Video
ID                                       : 1
Format                                   : AVC
Format/Info                              : Advanced Video Codec
Format profile                           : High@L4
Format settings                          : CABAC / 3 Ref Frames
Format settings, CABAC                   : Yes
Format settings, Reference frames        : 3 frames
Codec ID                                 : V_MPEG4/ISO/AVC
Duration                                 : 9 min 11 s
Bit rate                                 : 1 940 kb/s
Width                                    : 1 920 pixels
Height                                   : 1 080 pixels
Display aspect ratio                     : 16:9
Frame rate mode                          : Constant
Frame rate                               : 23.976 (24000/1001) FPS
Color space                              : YUV
Chroma subsampling                       : 4:2:0
Bit depth                                : 8 bits
Scan type                                : Progressive
Bits/(Pixel*Frame)                       : 0.039
Stream size                              : 128 MiB (94%)
Language                                 : Japanese
Default                                  : Yes
Forced                                   : No
Color range                              : Limited
Color primaries                          : BT.709
Transfer characteristics                 : BT.709
Matrix coefficients                      : BT.709

Audio
ID                                       : 2
Format                                   : AAC LC
Format/Info                              : Advanced Audio Codec Low Complexity
Codec ID                                 : A_AAC-2
Duration                                 : 9 min 11 s
Bit rate                                 : 126 kb/s
Channel(s)                               : 2 channels
Channel layout                           : L R
Sampling rate                            : 44.1 kHz
Frame rate                               : 43.066 FPS (1024 SPF)
Compression mode                         : Lossy
Stream size                              : 8.26 MiB (6%)
Language                                 : Japanese
Default                                  : Yes
Forced                                   : No

Other Files in this Torrent
[Techmod] Monster Strike - The Fading Cosmos 10 [1DFFC2FF].mkv
beta
Anime DDL+NZB mirror
Current Time: 16/08/2022 00:55



About/FAQs

Discord