[Techmod] Monster Strike - The Fading Cosmos 07 [533CE83C].mkv


File Size111.1 MB (116,541,174 bytes)
DownloadAnonFiles | ClickNUpload | DownloadGG | KrakenFiles | MultiUp
  • BdUpload
  • DownAce
  • Fichier
  • FileCloud
  • Filerio
  • FilesCdn
  • IndiShare
  • Kbagi
  • Turbobit
  • UpToBox
  • Uppit
| ZippyShare
HashesCRC32: 533CE83C, MD5: EB1BA3113C155983B6B6D7870773FD42, SHA1: EB8803BC5F921EC00A6B0D5A85A5C01F91AEB877, SHA256: 07E4F5FF536C8096AE03675CF6793BB1788207412B3F045E9EA1C866EA601CF8, ED2K: 06D14B9563B26C1666F62C0D55CD30CE
Screenshots
screenshotscreenshotscreenshotscreenshotscreenshot
Additional Info
General
Unique ID                                : 153960334313524236762610064593512833708 (0x73D3AE8B1D79E75C2851863A298822AC)
Complete name                            : [Techmod] Monster Strike - The Fading Cosmos 07 [533CE83C].mkv
Format                                   : Matroska
Format version                           : Version 4
File size                                : 111 MiB
Duration                                 : 8 min 2 s
Overall bit rate                         : 1 932 kb/s
Encoded date                             : UTC 2022-04-08 02:28:15
Writing application                      : mkvmerge v66.0.0 ('Josie') 64-bit
Writing library                          : libebml v1.4.2 + libmatroska v1.6.4

Video
ID                                       : 1
Format                                   : AVC
Format/Info                              : Advanced Video Codec
Format profile                           : High@L4
Format settings                          : CABAC / 3 Ref Frames
Format settings, CABAC                   : Yes
Format settings, Reference frames        : 3 frames
Codec ID                                 : V_MPEG4/ISO/AVC
Duration                                 : 8 min 2 s
Bit rate                                 : 1 804 kb/s
Width                                    : 1 920 pixels
Height                                   : 1 080 pixels
Display aspect ratio                     : 16:9
Frame rate mode                          : Constant
Frame rate                               : 23.976 (24000/1001) FPS
Color space                              : YUV
Chroma subsampling                       : 4:2:0
Bit depth                                : 8 bits
Scan type                                : Progressive
Bits/(Pixel*Frame)                       : 0.036
Stream size                              : 104 MiB (93%)
Language                                 : Japanese
Default                                  : Yes
Forced                                   : No
Color range                              : Limited
Color primaries                          : BT.709
Transfer characteristics                 : BT.709
Matrix coefficients                      : BT.709

Audio
ID                                       : 2
Format                                   : AAC LC
Format/Info                              : Advanced Audio Codec Low Complexity
Codec ID                                 : A_AAC-2
Duration                                 : 8 min 2 s
Bit rate                                 : 126 kb/s
Channel(s)                               : 2 channels
Channel layout                           : L R
Sampling rate                            : 44.1 kHz
Frame rate                               : 43.066 FPS (1024 SPF)
Compression mode                         : Lossy
Stream size                              : 7.22 MiB (6%)
Language                                 : Japanese
Default                                  : Yes
Forced                                   : No

Other Files in this Torrent
[Techmod] Monster Strike - The Fading Cosmos 07 [533CE83C].mkv
beta
Anime DDL+NZB mirror
Current Time: 25/06/2022 04:33



About/FAQs

Discord