[Techmod] Monster Strike the Anime S02E00 [17CB7F49].mkv


File Size190.1 MB (199,380,266 bytes)
DownloadAnonFiles | ClickNUpload | DownloadGG | KrakenFiles | MultiUp
  • BdUpload
  • DownAce
  • Fichier
  • FileCloud
  • Filerio
  • FilesCdn
  • IndiShare
  • Kbagi
  • Turbobit
  • UpToBox
  • Uppit
| ZippyShare
HashesCRC32: 17CB7F49, MD5: F81F04A1C5D09AFC2C98DEE4932BC1A1, SHA1: 348365AA7ED789860652891CC6C5FF387A1EE14A, SHA256: B85AC1FFA933BB166024B248DACD1B9A5291B63D07B09772D4AA355F60CFF686, ED2K: 0691CC0D47319B14C81052E914A237EA
Screenshots
screenshotscreenshotscreenshotscreenshotscreenshot
Additional Info
General
Unique ID                                : 192530999029638575468064052476146420212 (0x90D81F22D78ED0508302523191E109F4)
Complete name                            : [Techmod] Monster Strike the Anime S02E00 [17CB7F49].mkv
Format                                   : Matroska
Format version                           : Version 4
File size                                : 190 MiB
Duration                                 : 15 min 12 s
Overall bit rate                         : 1 749 kb/s
Encoded date                             : UTC 2022-04-08 02:18:07
Writing application                      : mkvmerge v66.0.0 ('Josie') 64-bit
Writing library                          : libebml v1.4.2 + libmatroska v1.6.4

Video
ID                                       : 1
Format                                   : AVC
Format/Info                              : Advanced Video Codec
Format profile                           : High@L4
Format settings                          : CABAC / 3 Ref Frames
Format settings, CABAC                   : Yes
Format settings, Reference frames        : 3 frames
Codec ID                                 : V_MPEG4/ISO/AVC
Duration                                 : 15 min 11 s
Bit rate                                 : 1 619 kb/s
Width                                    : 1 920 pixels
Height                                   : 1 080 pixels
Display aspect ratio                     : 16:9
Frame rate mode                          : Constant
Frame rate                               : 23.976 (24000/1001) FPS
Color space                              : YUV
Chroma subsampling                       : 4:2:0
Bit depth                                : 8 bits
Scan type                                : Progressive
Bits/(Pixel*Frame)                       : 0.033
Stream size                              : 176 MiB (93%)
Writing library                          : x264 core 155 r2901 7d0ff22
Language                                 : English
Default                                  : Yes
Forced                                   : No
Color range                              : Limited
Color primaries                          : BT.709
Transfer characteristics                 : BT.709
Matrix coefficients                      : BT.709

Audio
ID                                       : 2
Format                                   : AAC LC
Format/Info                              : Advanced Audio Codec Low Complexity
Codec ID                                 : A_AAC-2
Duration                                 : 15 min 12 s
Bit rate                                 : 128 kb/s
Channel(s)                               : 2 channels
Channel layout                           : L R
Sampling rate                            : 44.1 kHz
Frame rate                               : 43.066 FPS (1024 SPF)
Compression mode                         : Lossy
Stream size                              : 13.9 MiB (7%)
Language                                 : English
Default                                  : Yes
Forced                                   : No

Other Files in this Torrent
[Techmod] Monster Strike the Anime S02E00 [17CB7F49].mkv
beta
Anime DDL+NZB mirror
Current Time: 25/06/2022 05:15



About/FAQs

Discord