[Techmod] Monster Strike the Anime S02E01 [F7FF1F56].mkv


File Size146.4 MB (153,557,245 bytes)
DownloadAnonFiles | ClickNUpload | DownloadGG | KrakenFiles | MultiUp
  • BdUpload
  • DownAce
  • Fichier
  • FileCloud
  • Filerio
  • FilesCdn
  • IndiShare
  • Kbagi
  • Turbobit
  • UpToBox
  • Uppit
| ZippyShare
HashesCRC32: F7FF1F56, MD5: FCBE15C34C2D8CA222FA4207232D3311, SHA1: 310D47A24D78E358901E031056AA4CFFB7B49555, SHA256: 829E254CC97B354D59D62452E23401284C07D6FE1186A3806FC1D09491672B27, ED2K: A6DA9B0D388FAEA8DFD6F263104C74FC
Screenshots
screenshotscreenshotscreenshotscreenshotscreenshot
Additional Info
General
Unique ID                                : 256495372377677983393008865482880508499 (0xC0F7363A38C09BDD26DAD68953BEE253)
Complete name                            : [Techmod] Monster Strike the Anime S02E01 [F7FF1F56].mkv
Format                                   : Matroska
Format version                           : Version 4
File size                                : 146 MiB
Duration                                 : 13 min 6 s
Overall bit rate                         : 1 561 kb/s
Encoded date                             : UTC 2022-04-08 02:18:13
Writing application                      : mkvmerge v66.0.0 ('Josie') 64-bit
Writing library                          : libebml v1.4.2 + libmatroska v1.6.4

Video
ID                                       : 1
Format                                   : AVC
Format/Info                              : Advanced Video Codec
Format profile                           : High@L4
Format settings                          : CABAC / 3 Ref Frames
Format settings, CABAC                   : Yes
Format settings, Reference frames        : 3 frames
Codec ID                                 : V_MPEG4/ISO/AVC
Duration                                 : 13 min 6 s
Bit rate                                 : 1 433 kb/s
Width                                    : 1 920 pixels
Height                                   : 1 080 pixels
Display aspect ratio                     : 16:9
Frame rate mode                          : Constant
Frame rate                               : 23.976 (24000/1001) FPS
Color space                              : YUV
Chroma subsampling                       : 4:2:0
Bit depth                                : 8 bits
Scan type                                : Progressive
Bits/(Pixel*Frame)                       : 0.029
Stream size                              : 134 MiB (92%)
Language                                 : Japanese
Default                                  : Yes
Forced                                   : No
Color range                              : Limited
Color primaries                          : BT.709
Transfer characteristics                 : BT.709
Matrix coefficients                      : BT.709

Audio
ID                                       : 2
Format                                   : AAC LC
Format/Info                              : Advanced Audio Codec Low Complexity
Codec ID                                 : A_AAC-2
Duration                                 : 13 min 6 s
Bit rate                                 : 126 kb/s
Channel(s)                               : 2 channels
Channel layout                           : L R
Sampling rate                            : 44.1 kHz
Frame rate                               : 43.066 FPS (1024 SPF)
Compression mode                         : Lossy
Stream size                              : 11.8 MiB (8%)
Language                                 : Japanese
Default                                  : Yes
Forced                                   : No

Other Files in this Torrent
[Techmod] Monster Strike the Anime S02E01 [F7FF1F56].mkv
beta
Anime DDL+NZB mirror
Current Time: 16/08/2022 01:14



About/FAQs

Discord