[Techmod] Monster Strike the Anime S02E21 [83C83D3D].mkv


File Size225.0 MB (235,931,134 bytes)
DownloadAnonFiles | ClickNUpload | DownloadGG | KrakenFiles | MultiUp
  • BdUpload
  • DownAce
  • Fichier
  • FileCloud
  • Filerio
  • FilesCdn
  • IndiShare
  • Kbagi
  • Turbobit
  • UpToBox
  • Uppit
| ZippyShare
HashesCRC32: 83C83D3D, MD5: 09151610770E038308D64C54A1CCE04E, SHA1: CFC2225C08A3319C68339D342D226698566D7A06, SHA256: 37B7CEAD55967F3BF8C8BD9389A143F1EBE93A5076899F47F35A3331A29300C5, ED2K: 4DD42B930C7EB9373CD495FA7065EF94
Screenshots
screenshotscreenshotscreenshotscreenshotscreenshot
Additional Info
General
Unique ID                                : 74309068079883843181352002132160356324 (0x37E767EB62D2F4143BD572055D2D1FE4)
Complete name                            : [Techmod] Monster Strike the Anime S02E21 [83C83D3D].mkv
Format                                   : Matroska
Format version                           : Version 4
File size                                : 225 MiB
Duration                                 : 9 min 3 s
Overall bit rate                         : 3 472 kb/s
Encoded date                             : UTC 2022-04-08 02:17:52
Writing application                      : mkvmerge v66.0.0 ('Josie') 64-bit
Writing library                          : libebml v1.4.2 + libmatroska v1.6.4

Video
ID                                       : 1
Format                                   : AVC
Format/Info                              : Advanced Video Codec
Format profile                           : High@L4
Format settings                          : CABAC / 2 Ref Frames
Format settings, CABAC                   : Yes
Format settings, Reference frames        : 2 frames
Codec ID                                 : V_MPEG4/ISO/AVC
Duration                                 : 9 min 3 s
Bit rate                                 : 3 345 kb/s
Width                                    : 1 920 pixels
Height                                   : 1 080 pixels
Display aspect ratio                     : 16:9
Frame rate mode                          : Constant
Frame rate                               : 23.976 (24000/1001) FPS
Color space                              : YUV
Chroma subsampling                       : 4:2:0
Bit depth                                : 8 bits
Scan type                                : Progressive
Bits/(Pixel*Frame)                       : 0.067
Stream size                              : 217 MiB (96%)
Language                                 : Japanese
Default                                  : Yes
Forced                                   : No
Color range                              : Limited
Color primaries                          : BT.709
Transfer characteristics                 : BT.709
Matrix coefficients                      : BT.709

Audio
ID                                       : 2
Format                                   : AAC LC
Format/Info                              : Advanced Audio Codec Low Complexity
Codec ID                                 : A_AAC-2
Duration                                 : 9 min 3 s
Bit rate                                 : 126 kb/s
Channel(s)                               : 2 channels
Channel layout                           : L R
Sampling rate                            : 44.1 kHz
Frame rate                               : 43.066 FPS (1024 SPF)
Compression mode                         : Lossy
Stream size                              : 8.14 MiB (4%)
Language                                 : Japanese
Default                                  : Yes
Forced                                   : No

Other Files in this Torrent
[Techmod] Monster Strike the Anime S02E21 [83C83D3D].mkv
beta
Anime DDL+NZB mirror
Current Time: 07/12/2022 00:35



About/FAQs

Discord