[Techmod] Monster Strike the Anime S02E19 [02E4D79B].mkv


File Size264.7 MB (277,514,291 bytes)
DownloadAnonFiles | ClickNUpload | DownloadGG | KrakenFiles | MultiUp
  • BdUpload
  • DownAce
  • Fichier
  • FileCloud
  • Filerio
  • FilesCdn
  • IndiShare
  • Kbagi
  • Turbobit
  • UpToBox
  • Uppit
| ZippyShare
HashesCRC32: 02E4D79B, MD5: 14D8E83D56136D348C17915C554B58E9, SHA1: 00C6157A1D851EC4EA8EB5F35996B96D4FF8510B, SHA256: 84E8D7A093AA6D0468F474DE38957D896151411CA1F9D3874E26A5383034CDBD, ED2K: A2002F313409E3D0146C345437C1DF25
Screenshots
screenshotscreenshotscreenshotscreenshotscreenshot
Additional Info
General
Unique ID                                : 301466664045094398158182535835424519157 (0xE2CC5E17E192FCF65F860B715FB9F3F5)
Complete name                            : [Techmod] Monster Strike the Anime S02E19 [02E4D79B].mkv
Format                                   : Matroska
Format version                           : Version 4
File size                                : 265 MiB
Duration                                 : 13 min 17 s
Overall bit rate                         : 2 783 kb/s
Encoded date                             : UTC 2022-04-08 02:17:39
Writing application                      : mkvmerge v66.0.0 ('Josie') 64-bit
Writing library                          : libebml v1.4.2 + libmatroska v1.6.4

Video
ID                                       : 1
Format                                   : AVC
Format/Info                              : Advanced Video Codec
Format profile                           : High@L4
Format settings                          : CABAC / 2 Ref Frames
Format settings, CABAC                   : Yes
Format settings, Reference frames        : 2 frames
Codec ID                                 : V_MPEG4/ISO/AVC
Duration                                 : 13 min 17 s
Bit rate                                 : 2 655 kb/s
Width                                    : 1 920 pixels
Height                                   : 1 080 pixels
Display aspect ratio                     : 16:9
Frame rate mode                          : Constant
Frame rate                               : 23.976 (24000/1001) FPS
Color space                              : YUV
Chroma subsampling                       : 4:2:0
Bit depth                                : 8 bits
Scan type                                : Progressive
Bits/(Pixel*Frame)                       : 0.053
Stream size                              : 252 MiB (95%)
Language                                 : Japanese
Default                                  : Yes
Forced                                   : No
Color range                              : Limited
Color primaries                          : BT.709
Transfer characteristics                 : BT.709
Matrix coefficients                      : BT.709

Audio
ID                                       : 2
Format                                   : AAC LC
Format/Info                              : Advanced Audio Codec Low Complexity
Codec ID                                 : A_AAC-2
Duration                                 : 13 min 17 s
Bit rate                                 : 126 kb/s
Channel(s)                               : 2 channels
Channel layout                           : L R
Sampling rate                            : 44.1 kHz
Frame rate                               : 43.066 FPS (1024 SPF)
Compression mode                         : Lossy
Stream size                              : 11.9 MiB (5%)
Language                                 : Japanese
Default                                  : Yes
Forced                                   : No

Other Files in this Torrent
[Techmod] Monster Strike the Anime S02E19 [02E4D79B].mkv
beta
Anime DDL+NZB mirror
Current Time: 28/06/2022 15:32



About/FAQs

Discord