[Techmod] Monster Strike the Anime S02E06 [4AC3CB78].mkv


File Size151.4 MB (158,803,177 bytes)
DownloadAnonFiles | ClickNUpload | DownloadGG | KrakenFiles | MultiUp
  • BdUpload
  • DownAce
  • Fichier
  • FileCloud
  • Filerio
  • FilesCdn
  • IndiShare
  • Kbagi
  • Turbobit
  • UpToBox
  • Uppit
| ZippyShare
HashesCRC32: 4AC3CB78, MD5: 4799BD77743B8D34EDDD37395A2C9120, SHA1: 486D363B4B1B4B21DD419D4510C8455A39B9D162, SHA256: 99CABEA9727288A746C5E8771C75C78DC31F6F13A53E28636098CD1ED203A9CB, ED2K: 6F1C007FA9960E0DFF976D2A34D2B086
Screenshots
screenshotscreenshotscreenshotscreenshotscreenshot
Additional Info
General
Unique ID                                : 151779186049404205158885826095847619367 (0x722F9BA19C3A1F7DCFAFA933A19CBB27)
Complete name                            : [Techmod] Monster Strike the Anime S02E06 [4AC3CB78].mkv
Format                                   : Matroska
Format version                           : Version 4
File size                                : 151 MiB
Duration                                 : 11 min 54 s
Overall bit rate                         : 1 777 kb/s
Encoded date                             : UTC 2022-04-08 02:18:34
Writing application                      : mkvmerge v66.0.0 ('Josie') 64-bit
Writing library                          : libebml v1.4.2 + libmatroska v1.6.4

Video
ID                                       : 1
Format                                   : AVC
Format/Info                              : Advanced Video Codec
Format profile                           : High@L4
Format settings                          : CABAC / 3 Ref Frames
Format settings, CABAC                   : Yes
Format settings, Reference frames        : 3 frames
Codec ID                                 : V_MPEG4/ISO/AVC
Duration                                 : 11 min 54 s
Bit rate                                 : 1 650 kb/s
Width                                    : 1 920 pixels
Height                                   : 1 080 pixels
Display aspect ratio                     : 16:9
Frame rate mode                          : Constant
Frame rate                               : 23.976 (24000/1001) FPS
Color space                              : YUV
Chroma subsampling                       : 4:2:0
Bit depth                                : 8 bits
Scan type                                : Progressive
Bits/(Pixel*Frame)                       : 0.033
Stream size                              : 141 MiB (93%)
Language                                 : Japanese
Default                                  : Yes
Forced                                   : No
Color range                              : Limited
Color primaries                          : BT.709
Transfer characteristics                 : BT.709
Matrix coefficients                      : BT.709

Audio
ID                                       : 2
Format                                   : AAC LC
Format/Info                              : Advanced Audio Codec Low Complexity
Codec ID                                 : A_AAC-2
Duration                                 : 11 min 54 s
Bit rate                                 : 126 kb/s
Channel(s)                               : 2 channels
Channel layout                           : L R
Sampling rate                            : 44.1 kHz
Frame rate                               : 43.066 FPS (1024 SPF)
Compression mode                         : Lossy
Stream size                              : 10.7 MiB (7%)
Language                                 : Japanese
Default                                  : Yes
Forced                                   : No

Other Files in this Torrent
[Techmod] Monster Strike the Anime S02E06 [4AC3CB78].mkv
beta
Anime DDL+NZB mirror
Current Time: 16/08/2022 00:53



About/FAQs

Discord