[Techmod] Monster Strike - The Fading Cosmos 08 [A75A611A].mkv


File Size95.56 MB (100,198,239 bytes)
DownloadAnonFiles | ClickNUpload | DownloadGG | KrakenFiles | MultiUp
  • BdUpload
  • DownAce
  • Fichier
  • FileCloud
  • Filerio
  • FilesCdn
  • IndiShare
  • Kbagi
  • Turbobit
  • UpToBox
  • Uppit
| ZippyShare
HashesCRC32: A75A611A, MD5: 03589E67ACF047B737E044428D4EC235, SHA1: 86CC8F8EC521624CE733C3802170F50E17AD2D91, SHA256: 48037E0C8CAAB1FD5A05B83EBF19874B7431BECF37F5F5A94C3B0778AB4DBA3A, ED2K: A45EF1E300BEA62FE10FFC6C4B52A846
Screenshots
screenshotscreenshotscreenshotscreenshotscreenshot
Additional Info
General
Unique ID                                : 17695358117628623083094285221269833685 (0xD50008390ED3C352D09D9414A2787D5)
Complete name                            : [Techmod] Monster Strike - The Fading Cosmos 08 [A75A611A].mkv
Format                                   : Matroska
Format version                           : Version 4
File size                                : 95.6 MiB
Duration                                 : 10 min 33 s
Overall bit rate                         : 1 265 kb/s
Encoded date                             : UTC 2022-04-08 02:28:18
Writing application                      : mkvmerge v66.0.0 ('Josie') 64-bit
Writing library                          : libebml v1.4.2 + libmatroska v1.6.4

Video
ID                                       : 1
Format                                   : AVC
Format/Info                              : Advanced Video Codec
Format profile                           : High@L4
Format settings                          : CABAC / 3 Ref Frames
Format settings, CABAC                   : Yes
Format settings, Reference frames        : 3 frames
Codec ID                                 : V_MPEG4/ISO/AVC
Duration                                 : 10 min 33 s
Bit rate                                 : 1 137 kb/s
Width                                    : 1 920 pixels
Height                                   : 1 080 pixels
Display aspect ratio                     : 16:9
Frame rate mode                          : Constant
Frame rate                               : 23.976 (24000/1001) FPS
Color space                              : YUV
Chroma subsampling                       : 4:2:0
Bit depth                                : 8 bits
Scan type                                : Progressive
Bits/(Pixel*Frame)                       : 0.023
Stream size                              : 85.9 MiB (90%)
Language                                 : Japanese
Default                                  : Yes
Forced                                   : No
Color range                              : Limited
Color primaries                          : BT.709
Transfer characteristics                 : BT.709
Matrix coefficients                      : BT.709

Audio
ID                                       : 2
Format                                   : AAC LC
Format/Info                              : Advanced Audio Codec Low Complexity
Codec ID                                 : A_AAC-2
Duration                                 : 10 min 33 s
Bit rate                                 : 126 kb/s
Channel(s)                               : 2 channels
Channel layout                           : L R
Sampling rate                            : 44.1 kHz
Frame rate                               : 43.066 FPS (1024 SPF)
Compression mode                         : Lossy
Stream size                              : 9.49 MiB (10%)
Language                                 : Japanese
Default                                  : Yes
Forced                                   : No

Other Files in this Torrent
[Techmod] Monster Strike - The Fading Cosmos 08 [A75A611A].mkv
beta
Anime DDL+NZB mirror
Current Time: 06/12/2022 23:50



About/FAQs

Discord