Monster Strike Anime - OVA - The Sprites of Floria [7C39BBB2].mkv


File Size165.8 MB (173,897,983 bytes)
DownloadAnonFiles | ClickNUpload | DownloadGG | KrakenFiles | MultiUp
  • BdUpload
  • DownAce
  • Fichier
  • FileCloud
  • Filerio
  • FilesCdn
  • IndiShare
  • Kbagi
  • Turbobit
  • UpToBox
  • Uppit
| ZippyShare
HashesCRC32: 7C39BBB2, MD5: 5E582450A31084937AE62EE3A21FBEBC, SHA1: 157BEC07EC2300FD690C1831592DEC9C716D4C0F, SHA256: 1FC90A7624818EF210492BE0A8C37D581EC97D3851BC15AEBF301F869814DBD1, ED2K: 04BCE7822E5468FF8C68C82B0AAB9F54
Screenshots
screenshotscreenshotscreenshotscreenshotscreenshot
Additional Info
General
Unique ID                                : 331648272618710811676366635839034751049 (0xF9812248D902B99555B653914287F849)
Complete name                            : Monster Strike Anime - OVA - The Sprites of Floria [7C39BBB2].mkv
Format                                   : Matroska
Format version                           : Version 4
File size                                : 166 MiB
Duration                                 : 21 min 39 s
Overall bit rate                         : 1 071 kb/s
Encoded date                             : UTC 2022-05-13 03:11:51
Writing application                      : mkvmerge v67.0.0 ('Under Stars') 64-bit
Writing library                          : libebml v1.4.2 + libmatroska v1.6.4

Video
ID                                       : 1
Format                                   : AVC
Format/Info                              : Advanced Video Codec
Format profile                           : High@L4
Format settings                          : CABAC / 3 Ref Frames
Format settings, CABAC                   : Yes
Format settings, Reference frames        : 3 frames
Codec ID                                 : V_MPEG4/ISO/AVC
Duration                                 : 21 min 39 s
Bit rate                                 : 943 kb/s
Width                                    : 1 920 pixels
Height                                   : 1 080 pixels
Display aspect ratio                     : 16:9
Frame rate mode                          : Constant
Frame rate                               : 23.976 (24000/1001) FPS
Color space                              : YUV
Chroma subsampling                       : 4:2:0
Bit depth                                : 8 bits
Scan type                                : Progressive
Bits/(Pixel*Frame)                       : 0.019
Stream size                              : 146 MiB (88%)
Language                                 : Japanese
Default                                  : Yes
Forced                                   : No
Color range                              : Limited
Color primaries                          : BT.709
Transfer characteristics                 : BT.709
Matrix coefficients                      : BT.709

Audio
ID                                       : 2
Format                                   : AAC LC
Format/Info                              : Advanced Audio Codec Low Complexity
Codec ID                                 : A_AAC-2
Duration                                 : 21 min 39 s
Bit rate                                 : 126 kb/s
Channel(s)                               : 2 channels
Channel layout                           : L R
Sampling rate                            : 44.1 kHz
Frame rate                               : 43.066 FPS (1024 SPF)
Compression mode                         : Lossy
Stream size                              : 19.5 MiB (12%)
Language                                 : Japanese
Default                                  : Yes
Forced                                   : No

Other Files in this Torrent
Monster Strike Anime - OVA - The Sprites of Floria [7C39BBB2].mkv
beta
Anime DDL+NZB mirror
Current Time: 06/12/2022 23:24



About/FAQs

Discord