[Techmod] Monster Strike the Anime S02E07 [261158F0].mkv


File Size168.7 MB (176,844,376 bytes)
DownloadAnonFiles | ClickNUpload | DownloadGG | KrakenFiles | MultiUp
  • BdUpload
  • DownAce
  • Fichier
  • FileCloud
  • Filerio
  • FilesCdn
  • IndiShare
  • Kbagi
  • Turbobit
  • UpToBox
  • Uppit
| ZippyShare
HashesCRC32: 261158F0, MD5: F1851FACFB47CC2CA3570726AA745DF0, SHA1: 745472C09B8CFF54527F8CB5171FD08880FC3502, SHA256: F2949C23BBB75C1932EBF0085A6B42BE3DC5CDFCD3362512565393A91B009FBB, ED2K: B79827EB9140C3731A975D7D117F490A
Screenshots
screenshotscreenshotscreenshotscreenshotscreenshot
Additional Info
General
Unique ID                                : 235673985940219133604793901165543028269 (0xB14D289E2C6C1846391DCAC9D305F62D)
Complete name                            : [Techmod] Monster Strike the Anime S02E07 [261158F0].mkv
Format                                   : Matroska
Format version                           : Version 4
File size                                : 169 MiB
Duration                                 : 11 min 3 s
Overall bit rate                         : 2 132 kb/s
Encoded date                             : UTC 2022-04-08 02:18:38
Writing application                      : mkvmerge v66.0.0 ('Josie') 64-bit
Writing library                          : libebml v1.4.2 + libmatroska v1.6.4

Video
ID                                       : 1
Format                                   : AVC
Format/Info                              : Advanced Video Codec
Format profile                           : High@L4
Format settings                          : CABAC / 3 Ref Frames
Format settings, CABAC                   : Yes
Format settings, Reference frames        : 3 frames
Codec ID                                 : V_MPEG4/ISO/AVC
Duration                                 : 11 min 3 s
Bit rate                                 : 2 004 kb/s
Width                                    : 1 920 pixels
Height                                   : 1 080 pixels
Display aspect ratio                     : 16:9
Frame rate mode                          : Constant
Frame rate                               : 23.976 (24000/1001) FPS
Color space                              : YUV
Chroma subsampling                       : 4:2:0
Bit depth                                : 8 bits
Scan type                                : Progressive
Bits/(Pixel*Frame)                       : 0.040
Stream size                              : 159 MiB (94%)
Language                                 : Japanese
Default                                  : Yes
Forced                                   : No
Color range                              : Limited
Color primaries                          : BT.709
Transfer characteristics                 : BT.709
Matrix coefficients                      : BT.709

Audio
ID                                       : 2
Format                                   : AAC LC
Format/Info                              : Advanced Audio Codec Low Complexity
Codec ID                                 : A_AAC-2
Duration                                 : 11 min 3 s
Bit rate                                 : 126 kb/s
Channel(s)                               : 2 channels
Channel layout                           : L R
Sampling rate                            : 44.1 kHz
Frame rate                               : 43.066 FPS (1024 SPF)
Compression mode                         : Lossy
Stream size                              : 9.94 MiB (6%)
Language                                 : Japanese
Default                                  : Yes
Forced                                   : No

Other Files in this Torrent
[Techmod] Monster Strike the Anime S02E07 [261158F0].mkv
beta
Anime DDL+NZB mirror
Current Time: 16/08/2022 00:28



About/FAQs

Discord