[Techmod] Monster Strike the Anime S02E17 [FB8F5E95].mkv


File Size169.7 MB (177,990,695 bytes)
DownloadAnonFiles | ClickNUpload | DownloadGG | KrakenFiles | MultiUp
  • BdUpload
  • DownAce
  • Fichier
  • FileCloud
  • Filerio
  • FilesCdn
  • IndiShare
  • Kbagi
  • Turbobit
  • UpToBox
  • Uppit
| ZippyShare
HashesCRC32: FB8F5E95, MD5: 89EB7E26C5A24CD19B214A6306D4FD95, SHA1: 5FC861BE8470D243E941F3ABACD764EC94BC3CF2, SHA256: 50B56BEAFA4FDEA3EECE0F7D669A1481A9A5B547462E95D9379D7AAF7D3022AC, ED2K: 999D65E0477986E4979511163B381697
Screenshots
screenshotscreenshotscreenshotscreenshotscreenshot
Additional Info
General
Unique ID                                : 27803319479303557736592191391789667662 (0x14EAB97C5C89D7E5A2278C20F34AD54E)
Complete name                            : [Techmod] Monster Strike the Anime S02E17 [FB8F5E95].mkv
Format                                   : Matroska
Format version                           : Version 4
File size                                : 170 MiB
Duration                                 : 11 min 15 s
Overall bit rate                         : 2 107 kb/s
Encoded date                             : UTC 2022-04-08 02:17:30
Writing application                      : mkvmerge v66.0.0 ('Josie') 64-bit
Writing library                          : libebml v1.4.2 + libmatroska v1.6.4

Video
ID                                       : 1
Format                                   : AVC
Format/Info                              : Advanced Video Codec
Format profile                           : High@L4
Format settings                          : CABAC / 3 Ref Frames
Format settings, CABAC                   : Yes
Format settings, Reference frames        : 3 frames
Codec ID                                 : V_MPEG4/ISO/AVC
Duration                                 : 11 min 15 s
Bit rate                                 : 2 012 kb/s
Width                                    : 1 920 pixels
Height                                   : 1 080 pixels
Display aspect ratio                     : 16:9
Frame rate mode                          : Constant
Frame rate                               : 23.976 (24000/1001) FPS
Color space                              : YUV
Chroma subsampling                       : 4:2:0
Bit depth                                : 8 bits
Scan type                                : Progressive
Bits/(Pixel*Frame)                       : 0.040
Stream size                              : 162 MiB (95%)
Language                                 : Japanese
Default                                  : Yes
Forced                                   : No
Color range                              : Limited
Color primaries                          : BT.709
Transfer characteristics                 : BT.709
Matrix coefficients                      : BT.709

Audio
ID                                       : 2
Format                                   : AAC LC
Format/Info                              : Advanced Audio Codec Low Complexity
Codec ID                                 : A_AAC-2
Duration                                 : 11 min 15 s
Bit rate                                 : 93.6 kb/s
Channel(s)                               : 1 channel
Channel layout                           : C
Sampling rate                            : 44.1 kHz
Frame rate                               : 43.066 FPS (1024 SPF)
Compression mode                         : Lossy
Stream size                              : 7.54 MiB (4%)
Language                                 : Japanese
Default                                  : Yes
Forced                                   : No

Other Files in this Torrent
[Techmod] Monster Strike the Anime S02E17 [FB8F5E95].mkv
beta
Anime DDL+NZB mirror
Current Time: 25/06/2022 05:39



About/FAQs

Discord