Mob Psycho 100 - S02/[zza] Mob Psycho 100 - S02 - ED [1080p.x265].mkv


File Size12.43 MB (13,031,100 bytes)
DownloadAnonFiles | ClickNUpload | DropAPK | Free | MultiUp
  • BdUpload
  • DownAce
  • Fichier
  • FileCloud
  • Filerio
  • FilesCdn
  • IndiShare
  • Kbagi
  • Turbobit
  • UpToBox
  • Uppit
| Sendspace | SolidFiles | ZippyShare
HashesCRC32: D42DB324, MD5: C2635825D5B5AD31FA0A94D5ACF95CF3, SHA1: 8BF9A39BA8FAB47C9FD03716D58CA1E552F2EFDC, SHA256: D02E2E731223573FF1D62D0B022C7EAD1DA93909D579A726A8EAB8A6FEA17024, ED2K: 0C39B258E47A425212E82A0AF9955AFE
Screenshots
screenshotscreenshot
Additional Info
General
Unique ID                                : 172560377680375785279348439436618378533 (0x81D1EB7BE0230C01B1E615D4BAFC2D25)
Complete name                            : [zza] Mob Psycho 100 - S02 - ED [1080p.x265].mkv
Format                                   : Matroska
Format version                           : Version 4
File size                                : 12.4 MiB
Duration                                 : 1 min 32 s
Overall bit rate                         : 1 132 kb/s
Encoded date                             : UTC 2020-08-01 10:01:31
Writing application                      : mkvmerge v46.0.0 ('No Deeper Escape') 64-bit
Writing library                          : libebml v1.3.10 + libmatroska v1.5.2

Video
ID                                       : 1
Format                                   : HEVC
Format/Info                              : High Efficiency Video Coding
Format profile                           : Main 10@L5@Main
Codec ID                                 : V_MPEGH/ISO/HEVC
Duration                                 : 1 min 32 s
Bit rate                                 : 942 kb/s
Width                                    : 1 920 pixels
Height                                   : 1 080 pixels
Display aspect ratio                     : 16:9
Frame rate mode                          : Variable
Frame rate                               : 23.976 (23976/1000) FPS
Original frame rate                      : 23.976 (24000/1001) FPS
Color space                              : YUV
Chroma subsampling                       : 4:2:0
Bit depth                                : 10 bits
Bits/(Pixel*Frame)                       : 0.019
Stream size                              : 10.3 MiB (83%)
Language                                 : zza
Default                                  : Yes
Forced                                   : No

Audio
ID                                       : 2
Format                                   : AAC LC
Format/Info                              : Advanced Audio Codec Low Complexity
Codec ID                                 : A_AAC-2
Duration                                 : 1 min 32 s
Bit rate                                 : 187 kb/s
Channel(s)                               : 2 channels
Channel layout                           : L R
Sampling rate                            : 48.0 kHz
Frame rate                               : 46.875 FPS (1024 SPF)
Compression mode                         : Lossy
Stream size                              : 2.05 MiB (17%)
Language                                 : Japanese
Default                                  : Yes
Forced                                   : No

Other Files in this Torrent
Mob Psycho 100 - S02/[zza] Mob Psycho 100 - S02 - ED [1080p.x265].mkv
beta
Anime DDL+NZB mirror
Current Time: 19/05/2024 17:14



About/FAQs

Discord