Mob Psycho 100 - S01/SPED/[zza] Mob Psycho 100 - S01 - SP - 05 [1080p.x265].mkv


File Size13.15 MB (13,790,661 bytes)
DownloadAnonFiles | ClickNUpload | DropAPK | Free | MultiUp
  • BdUpload
  • DownAce
  • Fichier
  • FileCloud
  • Filerio
  • FilesCdn
  • IndiShare
  • Kbagi
  • Turbobit
  • UpToBox
  • Uppit
| Sendspace | SolidFiles | ZippyShare
HashesCRC32: D2D5ADD8, MD5: DB7FBF04F966085B2FDB6B2CEE4826AF, SHA1: 2BF4F7F8DD46D2DF8171F63B265C137B4DF8932F, SHA256: 9887AF8993D365EA8E2026C14B49D63CF05D550BBAFE43128CB2984598D93911, ED2K: 71BEA505A3387DB474814AAF8290A267
Screenshots
screenshotscreenshotscreenshotscreenshotscreenshot
SubtitlesAll Attachments | Akatomba-kBaraka [eng, ASS]
Additional Info
General
Unique ID                                : 217194501904014073523946140313694611472 (0xA36623B618B018D37BC3A5B2FC5DA810)
Complete name                            : [zza] Mob Psycho 100 - S01 - SP - 05 [1080p.x265].mkv
Format                                   : Matroska
Format version                           : Version 4
File size                                : 13.2 MiB
Duration                                 : 6 min 3 s
Overall bit rate                         : 304 kb/s
Encoded date                             : UTC 2020-08-01 09:43:20
Writing application                      : mkvmerge v46.0.0 ('No Deeper Escape') 64-bit
Writing library                          : libebml v1.3.10 + libmatroska v1.5.2
Attachments                              : Montara-Gothic.ttf / Montara-Italic_0.ttf / PIXELADE.TTF / SMW2-Yoshis-Island.ttf

Video
ID                                       : 1
Format                                   : HEVC
Format/Info                              : High Efficiency Video Coding
Format profile                           : Main 10@L5@Main
Codec ID                                 : V_MPEGH/ISO/HEVC
Duration                                 : 6 min 3 s
Bit rate                                 : 111 kb/s
Width                                    : 1 920 pixels
Height                                   : 1 080 pixels
Display aspect ratio                     : 16:9
Frame rate mode                          : Variable
Frame rate                               : 23.976 (23976/1000) FPS
Original frame rate                      : 23.976 (24000/1001) FPS
Color space                              : YUV
Chroma subsampling                       : 4:2:0
Bit depth                                : 10 bits
Bits/(Pixel*Frame)                       : 0.002
Stream size                              : 4.80 MiB (36%)
Language                                 : zza
Default                                  : Yes
Forced                                   : No

Audio
ID                                       : 2
Format                                   : AAC LC
Format/Info                              : Advanced Audio Codec Low Complexity
Codec ID                                 : A_AAC-2
Duration                                 : 6 min 3 s
Bit rate                                 : 187 kb/s
Channel(s)                               : 2 channels
Channel layout                           : L R
Sampling rate                            : 48.0 kHz
Frame rate                               : 46.875 FPS (1024 SPF)
Compression mode                         : Lossy
Stream size                              : 8.12 MiB (62%)
Language                                 : Japanese
Default                                  : Yes
Forced                                   : No

Text
ID                                       : 3
Format                                   : ASS
Codec ID                                 : S_TEXT/ASS
Codec ID/Info                            : Advanced Sub Station Alpha
Duration                                 : 5 min 45 s
Bit rate                                 : 203 b/s
Count of elements                        : 126
Compression mode                         : Lossless
Stream size                              : 8.60 KiB (0%)
Title                                    : Akatomba-kBaraka
Language                                 : English
Default                                  : Yes
Forced                                   : No

Menu
00:00:00.000                             : Gen's Past
00:02:08.370                             : Negligence
00:03:55.150                             : Takeuchi's Abilities
00:05:47.973                             : Credits

Other Files in this Torrent
Mob Psycho 100 - S01/SPED/[zza] Mob Psycho 100 - S01 - SP - 05 [1080p.x265].mkv
beta
Anime DDL+NZB mirror
Current Time: 26/02/2024 21:30



About/FAQs

Discord