Mob Psycho 100 - S01/SPED/[zza] Mob Psycho 100 - S01 - SP - 02 [1080p.x265].mkv


File Size13.29 MB (13,937,017 bytes)
DownloadAnonFiles | ClickNUpload | DropAPK | Free | MultiUp
  • BdUpload
  • DownAce
  • Fichier
  • FileCloud
  • Filerio
  • FilesCdn
  • IndiShare
  • Kbagi
  • Turbobit
  • UpToBox
  • Uppit
| Sendspace | SolidFiles | ZippyShare
HashesCRC32: 7B4CAD0E, MD5: A1E5EE7E7BB201609E51FF79DB46B0E7, SHA1: 9205F1FE190435CBF6DF5B17D979192F3D5488AE, SHA256: ACE779B7649AF8B3DB9F5883778EB5944D897CF02FD3D1D35B6F1D3637C0E12C, ED2K: 8FB7D671EFF639066ABD0EFFC3F4E38C
Screenshots
screenshotscreenshotscreenshotscreenshotscreenshot
SubtitlesAll Attachments | Akatomba-kBaraka [eng, ASS]
Additional Info
General
Unique ID                                : 331016884725616712572222853379468222061 (0xF90788753FDA951DCBD5733268A2DE6D)
Complete name                            : [zza] Mob Psycho 100 - S01 - SP - 02 [1080p.x265].mkv
Format                                   : Matroska
Format version                           : Version 4
File size                                : 13.3 MiB
Duration                                 : 5 min 58 s
Overall bit rate                         : 311 kb/s
Encoded date                             : UTC 2020-08-01 09:41:19
Writing application                      : mkvmerge v46.0.0 ('No Deeper Escape') 64-bit
Writing library                          : libebml v1.3.10 + libmatroska v1.5.2
Attachments                              : Hand Of Sean Pro.otf / Montara-Gothic.ttf / Montara-Italic_0.ttf / PIXELADE.TTF

Video
ID                                       : 1
Format                                   : HEVC
Format/Info                              : High Efficiency Video Coding
Format profile                           : Main 10@L5@Main
Codec ID                                 : V_MPEGH/ISO/HEVC
Duration                                 : 5 min 58 s
Bit rate                                 : 106 kb/s
Width                                    : 1 920 pixels
Height                                   : 1 080 pixels
Display aspect ratio                     : 16:9
Frame rate mode                          : Variable
Frame rate                               : 23.976 (23976/1000) FPS
Original frame rate                      : 23.976 (24000/1001) FPS
Color space                              : YUV
Chroma subsampling                       : 4:2:0
Bit depth                                : 10 bits
Bits/(Pixel*Frame)                       : 0.002
Stream size                              : 4.52 MiB (34%)
Language                                 : zza
Default                                  : Yes
Forced                                   : No

Audio
ID                                       : 2
Format                                   : AAC LC
Format/Info                              : Advanced Audio Codec Low Complexity
Codec ID                                 : A_AAC-2
Duration                                 : 5 min 58 s
Bit rate                                 : 192 kb/s
Channel(s)                               : 2 channels
Channel layout                           : L R
Sampling rate                            : 48.0 kHz
Frame rate                               : 46.875 FPS (1024 SPF)
Compression mode                         : Lossy
Stream size                              : 8.07 MiB (61%)
Language                                 : Japanese
Default                                  : Yes
Forced                                   : No

Text
ID                                       : 3
Format                                   : ASS
Codec ID                                 : S_TEXT/ASS
Codec ID/Info                            : Advanced Sub Station Alpha
Duration                                 : 5 min 41 s
Bit rate                                 : 179 b/s
Count of elements                        : 132
Compression mode                         : Lossless
Stream size                              : 7.50 KiB (0%)
Title                                    : Akatomba-kBaraka
Language                                 : English
Default                                  : Yes
Forced                                   : No

Menu
00:00:00.000                             : Cyberbrain Syndrome
00:02:07.370                             : Mezato's Ambition
00:04:21.340                             : The Flightless Penguin
00:05:43.510                             : Credits

Other Files in this Torrent
Mob Psycho 100 - S01/SPED/[zza] Mob Psycho 100 - S01 - SP - 02 [1080p.x265].mkv
beta
Anime DDL+NZB mirror
Current Time: 23/04/2024 08:58



About/FAQs

Discord